Скачать через торрент Миссия невыполнима: Последствия Mission: Impossible - Fallout Фильм бесплатно в хорошем качестве torrent

Скачивайте на UnionPeer.org фильмы через торрент без регистрации. Новинки кино в хорошем качестве через торрент. На UnionPeer.org можно скачать через торрент фильмы 2014 и 2015 годов. Самые новые фильмы.

Скачать торрент Миссия невыполнима: Последствия Mission: Impossible - Fallout бесплатно через .torrent фильм мультфильм сериал

Статистика раздачи
Размер:  3.23 GB   |    Зарегистрирован:  9 месяцев   |    .torrent скачан:  151 раз   |   
Раздают:  1  
   
загрузка...
 
Автор Сообщение

Galfimbul

avatar Galfimbul


Информация о фильме
Миссия невыполнима: Последствия /Mission: Impossible - Fallout

Год выпуска: 2018
Жанр: Боевик, триллер, приключения
Режиссер: Кристофер МакКуорри
В ролях: Том Круз, Ребекка Фергюсон (II), Генри Кавилл, Мишель Монахэн, Ванесса Кирби, Уэс Бентли, Саймон Пегг, Анджела Бассетт, Алек Болдуин, Винг Рэймс

О фильме:
Итан Хант и его команда, а также недавно примкнувшие к ним союзники, вынуждены действовать наперегонки со временем, когда новая миссия идет не по плану.



Страна: США, Китай, Франция, Норвегия
Студия: Bad Robot, Paramount Pictures, Skydance Media
Продолжительность: 02:27:24
Перевод: Дублированный | iTunes

Формат: MKV
Качество: BDRip-AVC
Видео: MPEG-4 AVC, 1024x540 (1.896:1), 2148 Kbit/s, 23.976 fps, 0,162 bpp
Звук:
Аудио #01: 48 kHz, AC3, 5.1, 384 Kbps | iTunes | RUS |
Аудио #02: 48 kHz, AC3, 2.0, 160 Kbps | iTunes | RUS |
Аудио #03: 48 kHz, AC3, 5.1, 448 Kbps | Оригинал | ENG |
Субтитры: Русские (Forced, full), украинские (Forced, full), английские (SDH, SDH Colored)
General
Unique ID : 186110822299584973927618287981190233313 (0x8C03A3FC02C661A3B4978A8EA8F8BCE1)
Complete name : D:Mission.Impossible.Fallout.2018.BDRip.AVc.ExKinoRay.mkv
Format : Matroska
Format version : Version 2
File size : 3.23 GiB
Duration : 2 h 27 min
Overall bit rate : 3 139 kb/s
Movie name : Mission Impossible Fallout 2018 from ExKinoRay
Encoded date : UTC 2018-11-15 22:51:50
Writing application : mkvmerge v5.6.0 ('Kenya Kane') built on May 27 2012 16:44:04
Writing library : libebml v1.2.3 + libmatroska v1.3.0

Video
ID : 1
Format : AVC
Format/Info : Advanced Video Codec
Format profile : High@L4.1
Format settings, CABAC : Yes
Format settings, ReFrames : 12 frames
Codec ID : V_MPEG4/ISO/AVC
Duration : 2 h 27 min
Bit rate : 2 148 kb/s
Width : 1 024 pixels
Height : 540 pixels
Display aspect ratio : 1.896
Frame rate mode : Constant
Frame rate : 23.976 (23976/1000) FPS
Color space : YUV
Chroma subsampling : 4:2:0
Bit depth : 8 bits
Scan type : Progressive
Bits/(Pixel*Frame) : 0.162
Stream size : 2.15 GiB (66%)
Title : Enigma
Writing library : x264 core 152 r2851 ba24899
Encoding settings : cabac=1 / ref=12 / deblock=1:-2:-2 / analyse=0x3:0x113 / me=umh / subme=10 / psy=1 / psy_rd=0.98:0.10 / mixed_ref=1 / me_range=32 / chroma_me=1 / trellis=2 / 8x8dct=1 / cqm=0 / deadzone=21,11 / fast_pskip=0 / chroma_qp_offset=-3 / threads=12 / lookahead_threads=3 / sliced_threads=0 / nr=0 / decimate=0 / interlaced=0 / bluray_compat=0 / constrained_intra=0 / bframes=10 / b_pyramid=2 / b_adapt=2 / b_bias=0 / direct=3 / weightb=1 / open_gop=0 / weightp=2 / keyint=240 / keyint_min=23 / scenecut=40 / intra_refresh=0 / rc=2pass / mbtree=0 / bitrate=2148 / ratetol=1.0 / qcomp=0.65 / qpmin=0 / qpmax=51 / qpstep=4 / cplxblur=20.0 / qblur=0.5 / ip_ratio=1.40 / pb_ratio=1.30 / aq=2:0.90
Language : English
Default : Yes
Forced : No
Color range : Limited
Color primaries : BT.709
Transfer characteristics : BT.709
Matrix coefficients : BT.709

Audio #1
ID : 2
Format : AC-3
Format/Info : Audio Coding 3
Mode extension : CM (complete main)
Format settings, Endianness : Big
Codec ID : A_AC3
Duration : 2 h 27 min
Bit rate mode : Constant
Bit rate : 384 kb/s
Channel(s) : 6 channels
Channel positions : Front: L C R, Side: L R, LFE
Sampling rate : 48.0 kHz
Frame rate : 31.250 FPS (1536 spf)
Compression mode : Lossy
Stream size : 405 MiB (12%)
Title : iTunes
Language : Russian
Default : Yes
Forced : No

Audio #2
ID : 3
Format : AC-3
Format/Info : Audio Coding 3
Mode extension : CM (complete main)
Format settings, Endianness : Big
Codec ID : A_AC3
Duration : 2 h 27 min
Bit rate mode : Constant
Bit rate : 160 kb/s
Channel(s) : 2 channels
Channel positions : Front: L R
Sampling rate : 48.0 kHz
Frame rate : 31.250 FPS (1536 spf)
Compression mode : Lossy
Stream size : 169 MiB (5%)
Title : iTunes
Language : Ukrainian
Default : No
Forced : No

Audio #3
ID : 4
Format : AC-3
Format/Info : Audio Coding 3
Mode extension : CM (complete main)
Format settings, Endianness : Big
Codec ID : A_AC3
Duration : 2 h 27 min
Bit rate mode : Constant
Bit rate : 448 kb/s
Channel(s) : 6 channels
Channel positions : Front: L C R, Side: L R, LFE
Sampling rate : 48.0 kHz
Frame rate : 31.250 FPS (1536 spf)
Compression mode : Lossy
Stream size : 472 MiB (14%)
Language : English
Default : No
Forced : No

Text #1
ID : 5
Format : UTF-8
Codec ID : S_TEXT/UTF8
Codec ID/Info : UTF-8 Plain Text
Title : Forced
Language : Russian
Default : Yes
Forced : No

Text #2
ID : 6
Format : UTF-8
Codec ID : S_TEXT/UTF8
Codec ID/Info : UTF-8 Plain Text
Language : Russian
Default : No
Forced : No

Text #3
ID : 7
Format : UTF-8
Codec ID : S_TEXT/UTF8
Codec ID/Info : UTF-8 Plain Text
Title : forced
Language : Ukrainian
Default : No
Forced : No

Text #4
ID : 8
Format : UTF-8
Codec ID : S_TEXT/UTF8
Codec ID/Info : UTF-8 Plain Text
Language : Ukrainian
Default : No
Forced : No

Text #5
ID : 9
Format : UTF-8
Codec ID : S_TEXT/UTF8
Codec ID/Info : UTF-8 Plain Text
Title : SDH
Language : English
Default : No
Forced : No

Text #6
ID : 10
Format : UTF-8
Codec ID : S_TEXT/UTF8
Codec ID/Info : UTF-8 Plain Text
Title : SDH (colored)
Language : English
Default : No
Forced : No

Menu
00:00:00.000 : en:00:00:00.000
00:10:37.011 : en:00:10:37.011
00:17:11.405 : en:00:17:11.405
00:26:57.241 : en:00:26:57.241
00:35:56.654 : en:00:35:56.654
00:49:18.414 : en:00:49:18.414
01:00:00.806 : en:01:00:00.806
01:10:23.719 : en:01:10:23.719
01:17:07.289 : en:01:17:07.289
01:28:28.470 : en:01:28:28.470
01:39:09.652 : en:01:39:09.652
01:46:26.547 : en:01:46:26.547
01:55:45.564 : en:01:55:45.564
02:03:10.592 : en:02:03:10.592
02:14:00.908 : en:02:14:00.908
02:19:48.088 : en:02:19:48.088


Автор релиза:
Источник http://BlaTor.org

Трекер:  [ 16-Ноя-2018 18:40 ]

  

Скачать .torrent

Размер .torrent файла 16 KB


Размер: 3.23 GB
Хэш (hash) релиза: 681a93363f5b5cb735731f835a8804951566a0b7
Подписка на обновления:

Торренты, похожие на Миссия невыполнима: Последствия Mission: Impossible - Fallout скачать торрент

Форум Название Автор Размер S L Добавлен
Зарубежные фильмы 2016-2018 (Новинки зарубежного кино) ·%· Миссия невыполнима: Последствия / Mission: Impossible - Fallout (2018) BDRip-AVC от ExKinoRay | IMAX Edition | Лицензия Galfimbul 11536979631.07 GB 0 0 1556385619

20:20

27-Апр-19

Зарубежные фильмы 2016-2018 (Новинки зарубежного кино) ·%· Миссия невыполнима: Последствия / Mission: Impossible - Fallout (2018) BDRip | IMAX Edition | Живов Galfimbul 23289856002.17 GB 0 0 1551798736

18:12

5-Мар-19

Зарубежные фильмы 2016-2018 (Новинки зарубежного кино) ·%· Миссия невыполнима: Последствия / Mission: Impossible - Fallout (2018) DVD5 | IMAX Edition | Custom Galfimbul 46928056324.37 GB 0 0 1549626626

14:50

8-Фев-19

Зарубежные фильмы 2016-2018 (Новинки зарубежного кино) ·%· Миссия невыполнима: Последствия / Mission: Impossible - Fallout (2018) HDRip 1080p от Ash61 | 3D-Video | halfSBS | D Galfimbul 1154092324810.75 GB 0 0 1548703810

22:30

28-Янв-19

Зарубежные фильмы 2016-2018 (Новинки зарубежного кино) ·%· Миссия невыполнима: Последствия / Mission: Impossible - Fallout (2018) BDRemux 1080p | IMAX Edition | D, A Galfimbul 3580192903733.34 GB 0 0 1548653415

08:30

28-Янв-19

Зарубежные фильмы 2016-2018 (Новинки зарубежного кино) ·%· Миссия невыполнима: Последствия / Mission: Impossible - Fallout (2018) DVD9+DVD5 | IMAX Edition | Custom Galfimbul 1082134118410.08 GB 0 0 1547646056

16:40

16-Янв-19

Зарубежные фильмы 2016-2018 (Новинки зарубежного кино) ·%· Миссия невыполнима: Последствия / Mission: Impossible - Fallout (2018) BDRip-HEVC 1080p | IMAX Edition | Лицензия Galfimbul 94164197428.77 GB 0 0 1545596408

23:20

23-Дек-18

Зарубежные фильмы 2016-2018 (Новинки зарубежного кино) ·%· Миссия невыполнима: Последствия / Mission: Impossible - Fallout (2018) BDRip 1080p от and77200 | IMAX Edition | 60 fps | Лицензия Galfimbul 1692236329315.76 GB 0 0 1544996425

00:40

17-Дек-18

Зарубежные фильмы 2016-2018 (Новинки зарубежного кино) ·%· Миссия невыполнима: Последствия / Mission: Impossible - Fallout (2018) BDRip от HQ-ViDEO | IMAX | Лицензия Galfimbul 31178260482.9 GB 0 0 1544253065

10:11

8-Дек-18

Зарубежные фильмы 2016-2018 (Новинки зарубежного кино) ·%· Миссия невыполнима: Последствия / Mission: Impossible - Fallout (2018) Blu-ray EUR 1080p | IMAX Edition | Лицензия Galfimbul 4518712240842.08 GB 0 0 1544052044

02:20

6-Дек-18

Зарубежные фильмы 2016-2018 (Новинки зарубежного кино) ·%· Миссия невыполнима: Последствия / Mission: Impossible - Fallout (2018) BDRip-AVC от OlLanDGroup | IMAX Edition | Лицензия Galfimbul 32197049813 GB 0 0 1544050239

01:50

6-Дек-18

Зарубежные фильмы 2016-2018 (Новинки зарубежного кино) ·%· Миссия невыполнима: Последствия / Mission: Impossible - Fallout (2018) UHD BDRip 720p от KORSAR | IMAX Edition | iTunes Galfimbul 98576347229.18 GB 0 0 1543536672

03:11

30-Ноя-18

Зарубежные фильмы 2016-2018 (Новинки зарубежного кино) ·%· Миссия невыполнима: Последствия / Mission: Impossible - Fallout (2018) UHD Blu-Ray 2160p от ExKinoRay | IMAX Edition | HDR | Dolby Vision | iTunes Galfimbul 9569190849789.12 GB 0 0 1543233010

14:50

26-Ноя-18

Зарубежные фильмы 2016-2018 (Новинки зарубежного кино) ·%· Миссия невыполнима: Последствия / Mission: Impossible - Fallout (2018) BDRip от ExKinoRay | IMAX Edition | iTunes Galfimbul 15719243001.46 GB 0 0 1542631264

15:41

19-Ноя-18

Зарубежные фильмы 2016-2018 (Новинки зарубежного кино) ·%· Миссия невыполнима: Последствия / Mission: Impossible - Fallout (2018) HDRip от Scarabey | IMAX Edition | iTunes Galfimbul 938745856895 MB 0 0 1542624646

13:50

19-Ноя-18

Зарубежные фильмы 2016-2018 (Новинки зарубежного кино) ·%· Миссия невыполнима: Последствия / Mission: Impossible - Fallout (2018) BDRip от ExKinoRay | IMAX Edition | iTunes Galfimbul 22734937882.12 GB 0 0 1542594662

05:31

19-Ноя-18

Зарубежные фильмы 2016-2018 (Новинки зарубежного кино) ·%· Миссия невыполнима: Последствия / Mission: Impossible - Fallout (2018) BDRip 720p от k.e.n & MegaPeer | IMAX Edition | iTunes Galfimbul 60964228965.68 GB 0 0 1542434421

09:00

17-Ноя-18

Зарубежные фильмы 2016-2018 (Новинки зарубежного кино) ·%· Миссия невыполнима: Последствия / Mission: Impossible - Fallout (2018) HDRip от Scarabey | IMAX Edition | iTunes Galfimbul 22676561922.11 GB 0 0 1542424808

06:20

17-Ноя-18

Зарубежные фильмы 2016-2018 (Новинки зарубежного кино) ·%· Миссия невыполнима: Последствия / Mission: Impossible - Fallout (2018) BDRip-HEVC 1080p | IMAX Edition | iTunes Galfimbul 79400362527.39 GB 0 0 1542397853

22:50

16-Ноя-18

Еще никто не оставлял запись к записи скачать торрент Миссия невыполнима: Последствия Mission: Impossible - Fallout . Будь первым!

!Обратная связь