Скачать через торрент Слоны могут играть в футбол Фильм бесплатно в хорошем качестве torrent

Скачивайте на UnionPeer.org фильмы через торрент без регистрации. Новинки кино в хорошем качестве через торрент. На UnionPeer.org можно скачать через торрент фильмы 2014 и 2015 годов. Самые новые фильмы.

Скачать торрент Слоны могут играть в футбол бесплатно через .torrent фильм мультфильм сериал

Статистика раздачи
Размер:  3.69 GB   |    Зарегистрирован:  19 дней   |    .torrent скачан:  89 раз   |   
Раздают:  1  
   
загрузка...
 
Автор Сообщение

Galfimbul

avatar Galfimbul


Слоны могут играть в футбол



[b]Год выпуска:
2018
Жанр: Мелодрама
Режиссёр: Михаил Сегал
В ролях: Владимир Мишуков, Софья Гершевич, Варвара Пахомова, Александра Быстржицкая, Дмитрий Гудочкин, Денис Фомин, Надежда Горелова, Михаил Сегал, Юрий Быков, Ирина Пахомова

Описание:
Попав в город своего детства, Дмитрий встречает юную Машу. Ему за сорок, она школьница. Однако всем известный сюжет «Лолиты» разворачивается по непредсказуемому сценарию.



Страна: Россия
Студия: АРТЛАЙТ, Инвада фильм, Старт
Продолжительность: 01:44:59
Язык: Русский

Файл
Формат: MKV
Качество: WEB-DL 1080p
Видео: 1920x804 (2,40:1), 25 fps, MPEG-4 AVC ~ 4652 Kbps avg, 0.121 bit/pixel
Звук: AC3, 48 kHz, 6 ch, ~384.00 kbps avg | русский | iTunes

Субтитры: Отсутствуют
Общее
Уникальный идентификатор : 123310565723351304414764218977754844707 (0x5CC4C047FF561C313570C53BC4688E23)
Полное имя : SLONY_MOGUT_IGRAT_FUTBOL (2018) WEB-DL 1080p.mkv
Формат : Matroska
Версия формата : Version 4 / Version 2
Размер файла : 3,69 Гбайт
Продолжительность : 1 ч. 44 м.
Общий поток : 5037 Кбит/сек
Название фильма : SLONY_MOGUT_IGRAT_FUTBOL (2018) WEB-DL 1080p
Дата кодирования : UTC 2018-11-22 02:10:43
Программа кодирования : mkvmerge v27.0.0 ('Metropolis') 64-bit
Библиотека кодирования : libebml v1.3.6 + libmatroska v1.4.9

Видео
Идентификатор : 1
Формат : AVC
Формат/Информация : Advanced Video Codec
Профиль формата : High@L4.1
Настройки формата : CABAC / 4 Ref Frames
Параметр CABAC формата : Да
Параметр RefFrames формата : 4 кадра
Идентификатор кодека : V_MPEG4/ISO/AVC
Продолжительность : 1 ч. 44 м.
Битрейт : 4652 Кбит/сек
Ширина : 1920 пикселей
Высота : 804 пикселя
Соотношение сторон : 2,40:1
Режим частоты кадров : Постоянный
Частота кадров : 25,000 кадров/сек
Цветовое пространство : YUV
Субдискретизация насыщенности : 4:2:0
Битовая глубина : 8 бит
Тип развёртки : Прогрессивная
Бит/(Пиксели*Кадры) : 0.121
Размер потока : 3,41 Гбайт (92%)
Заголовок : SLONY_MOGUT_IGRAT_FUTBOL (2018) WEB-DL 1080p
Default : Да
Forced : Нет

Аудио
Идентификатор : 2
Формат : AC-3
Формат/Информация : Audio Coding 3
Идентификатор кодека : A_AC3
Продолжительность : 1 ч. 44 м.
Вид битрейта : Постоянный
Битрейт : 384 Кбит/сек
Каналы : 6 каналов
Расположение каналов : Front: L C R, Side: L R, LFE
Частота : 48,0 КГц
Частота кадров : 31,250 кадров/сек (1536 SPF)
Битовая глубина : 16 бит
Метод сжатия : С потерями
Размер потока : 288 Мбайт (8%)
Заголовок : iTunes | SLONY_MOGUT_IGRAT_FUTBOL (2018) WEB-DL 1080p
Язык : Russian
Default : Да
Forced : Нет
Источник http://BlaTor.org

Трекер:  [ 22-Ноя-2018 12:30 ]

  

Скачать .torrent

Размер .torrent файла 19 KB


Размер: 3.69 GB
Хэш (hash) релиза: cc6eee8aa186dc946d15382c4427970ee0b7f28d
Подписка на обновления:

Торренты, похожие на Слоны могут играть в футбол скачать торрент

Форум Название Автор Размер S L Добавлен
Российские фильмы 2016-2018 (Новинки русского кино) ·%· Слоны могут играть в футбол (2018) WEB-DLRip от Scarabey | iTunes Galfimbul 15529635841.45 GB 0 0 1544136715

01:51

7-Дек-18

Российские фильмы 2016-2018 (Новинки русского кино) ·%· Слоны могут играть в футбол (2018) WEB-DLRip AVC | iTunes Galfimbul 16028059781.49 GB 0 0 1543992652

09:50

5-Дек-18

Российские фильмы 2016-2018 (Новинки русского кино) ·%· Слоны могут играть в футбол (2018) WEB-DLRip от MegaPeer | iTunes Galfimbul 15679549441.46 GB 0 0 1542879022

12:30

22-Ноя-18

Еще никто не оставлял запись к записи скачать торрент Слоны могут играть в футбол . Будь первым!

!Обратная связь