Скачать через торрент Собибор Фильм бесплатно в хорошем качестве torrent

Скачивайте на UnionPeer.org фильмы через торрент без регистрации. Новинки кино в хорошем качестве через торрент. На UnionPeer.org можно скачать через торрент фильмы 2014 и 2015 годов. Самые новые фильмы.

Скачать торрент Собибор бесплатно через .torrent фильм мультфильм сериал

Статистика раздачи
Размер:  3.62 GB   |    Зарегистрирован:  19 дней   |    .torrent скачан:  28 раз   |   
Раздают:  1  
   
загрузка...
 
Автор Сообщение

Galfimbul

avatar Galfimbul




Собибор



[b]Год выпуска:
2018
Жанр: Военный
, драма
Режиссер: Константин Хабенский
В ролях: Константин Хабенский, Кристофер Ламберт, Фелисе Янкелль, Дайнюс Казлаускас, Сергей Годин, Роман Агеев, Гела Месхи, Михалина Ольшанска, Мария Кожевникова, Вольфганг Черны

О фильме:
История сопротивления человеческого духа бездушной машине уничтожения. В октябре 1943 года заключённые лагеря Собибор во главе с лейтенантом Красной Армии Александром Печерским поднимают восстание — единственное успешное восстание в нацистском лагере смерти.


Страна: Россия
Продолжительность: 01:53:15
Язык: Русский

Файл
Кодек: MPEG-4 AVC
Качество: BDRip 720p
Видео: 4200 Кбит/с, 1280x536
Звук: Русский (AC3, 6 ch, 384 Кбит/с)

Инфо-файл
General
Unique ID : 211826108158770088909731373510148539857 (0x9F5C3976E7B755DBB59E93DF759CC5D1)
Complete name : D:Новая папкаСобибор.2018. BDRip (720p).mkv
Format : Matroska
Format version : Version 2
File size : 3.62 GiB
Duration : 1 h 52 min
Overall bit rate : 4 582 kb/s
Encoded date : UTC 2018-11-22 04:01:06
Writing application : mkvmerge v7.8.0 ('River Man') 32bit built on Apr 3 2015 12:11:22
Writing library : libebml v1.3.1 + libmatroska v1.4.2

Video
ID : 1
Format : AVC
Format/Info : Advanced Video Codec
Format profile : High@L4.1
Format settings : CABAC / 11 Ref Frames
Format settings, CABAC : Yes
Format settings, ReFrames : 11 frames
Codec ID : V_MPEG4/ISO/AVC
Duration : 1 h 52 min
Bit rate : 4 200 kb/s
Width : 1 280 pixels
Height : 536 pixels
Display aspect ratio : 2.40:1
Frame rate mode : Constant
Frame rate : 25.000 FPS
Color space : YUV
Chroma subsampling : 4:2:0
Bit depth : 8 bits
Scan type : Progressive
Bits/(Pixel*Frame) : 0.245
Stream size : 3.24 GiB (90%)
Writing library : x264 core 146 r2538 121396c
Encoding settings : cabac=1 / ref=11 / deblock=1:-1:-1 / analyse=0x3:0x133 / me=umh / subme=7 / psy=1 / psy_rd=1.00:0.10 / mixed_ref=1 / me_range=16 / chroma_me=1 / trellis=2 / 8x8dct=1 / cqm=0 / deadzone=21,11 / fast_pskip=0 / chroma_qp_offset=-3 / threads=6 / lookahead_threads=3 / sliced_threads=0 / nr=0 / decimate=1 / interlaced=0 / bluray_compat=0 / constrained_intra=0 / bframes=11 / b_pyramid=2 / b_adapt=2 / b_bias=0 / direct=3 / weightb=1 / open_gop=0 / weightp=2 / keyint=250 / keyint_min=25 / scenecut=40 / intra_refresh=0 / rc_lookahead=50 / rc=2pass / mbtree=1 / bitrate=4200 / ratetol=1.0 / qcomp=0.60 / qpmin=0 / qpmax=69 / qpstep=4 / cplxblur=20.0 / qblur=0.5 / ip_ratio=1.40 / aq=1:1.00
Default : Yes
Forced : No

Audio
ID : 2
Format : AC-3
Format/Info : Audio Coding 3
Commercial name : Dolby Digital
Codec ID : A_AC3
Duration : 1 h 52 min
Bit rate mode : Constant
Bit rate : 384 kb/s
Channel(s) : 6 channels
Channel layout : L R C LFE Ls Rs
Sampling rate : 48.0 kHz
Frame rate : 31.250 FPS (1536 SPF)
Bit depth : 16 bits
Compression mode : Lossy
Stream size : 310 MiB (8%)
Service kind : Complete Main
Default : Yes
Forced : No
Источник http://BlaTor.org

Трекер:  [ 22-Ноя-2018 14:10 ]

  

Скачать .torrent

Размер .torrent файла 18 KB


Размер: 3.62 GB
Хэш (hash) релиза: e2d9e62b0d5620aa984227253ce6bff316f3b9cd
Подписка на обновления:

Торренты, похожие на Собибор скачать торрент

Форум Название Автор Размер S L Добавлен
Российские фильмы 2016-2018 (Новинки русского кино) ·%· Собибор (2018) BDRemux 1080i | FRA Transfer | iTunes Galfimbul 1851632139617.24 GB 0 0 1542700391

10:53

20-Ноя-18

Российские фильмы 2016-2018 (Новинки русского кино) ·%· Собибор (2018) BDRip от ExKinoRay | iTunes Galfimbul 21500278822 GB 0 0 1542655885

22:31

19-Ноя-18

Российские фильмы 2016-2018 (Новинки русского кино) ·%· Собибор (2018) BDRip от ExKinoRay | iTunes Galfimbul 15154206101.41 GB 0 0 1542568371

22:12

18-Ноя-18

Российские фильмы 2016-2018 (Новинки русского кино) ·%· Собибор (2018) BDRip-AVC от OlLanDGroup | iTunes Galfimbul 15104468151.41 GB 0 0 1542382893

18:41

16-Ноя-18

Российские фильмы 2016-2018 (Новинки русского кино) ·%· Собибор (2018) WEB-DLRip 720p от MIXTV | iTunes Galfimbul 23579894222.2 GB 0 0 1528956762

09:12

14-Июн-18

Российские фильмы до 2016 ·· Собибор (Константин Хабенский) [2018, военный, драма, WEB-DLRip] Galfimbul 23401512962.18 GB 0 0 1527861258

16:54

1-Июн-18

Российские фильмы 2016-2018 (Новинки русского кино) ·· Собибор (Константин Хабенский) [2018 г., Военный, драма, WEB-DL 720p] | iTunes Galfimbul 38907238953.62 GB 0 0 1527837325

10:15

1-Июн-18

Российские фильмы 2016-2018 (Новинки русского кино) ·· Собибор (Константин Хабенский) [2018 г., Военный, драма, WEB-DLRip] | iTunes Galfimbul 22048768002.05 GB 0 0 1527837321

10:15

1-Июн-18

Российские фильмы до 2016 ·· Собибор (Константин Хабенский) [2018, Россия, военный, драма, WEB-DL 1080p] Original Rus Galfimbul 43271419554.03 GB 0 0 1527836491

10:01

1-Июн-18

Российские фильмы 2016-2018 (Новинки русского кино) ·· Собибор (Константин Хабенский) [2018, военный, драма, WEB-DL 1080p] iTunes Galfimbul 43271419554.03 GB 0 0 1527799387

23:43

31-Май-18

Документальные фильмы и телепередачи ·· Собибор. Непокоренные (Ольга Товма, Алексей Товма) [2013, Документальный, война, история, биография, SATRip] Galfimbul 639942656610 MB 0 0 1476554024

20:53

15-Окт-16

Документальные фильмы и телепередачи ·· Лейтенант Печерский из Собибора. (Екатерина Гальперина)Фильм Леонида Млечина. [2013, Документальный, DVDRip] Galfimbul 481088652459 MB 0 0 1382216135

23:55

19-Окт-13

Еще никто не оставлял запись к записи скачать торрент Собибор . Будь первым!

!Обратная связь