Скачать через торрент Пандемия Pandemic Фильм бесплатно в хорошем качестве torrent

Скачивайте на UnionPeer.org фильмы через торрент без регистрации. Новинки кино в хорошем качестве через торрент. На UnionPeer.org можно скачать через торрент фильмы 2014 и 2015 годов. Самые новые фильмы.

Скачать торрент Пандемия Pandemic бесплатно через .torrent фильм мультфильм сериал

Статистика раздачи
Размер:  6.72 GB   |    Зарегистрирован:  5 лет 3 месяца   |    .torrent скачан:  48 раз   |   
Раздают:  1  
 

Скачать Пандемия / Pandemic (2016) BDRip 1080p | L через torrent

 
 
Автор Сообщение

Galfimbul

avatar Galfimbul


Пандемия /Pandemic

Год выхода: 2016
Жанр: Ужасы, фантастика, боевик, триллер
Режиссер: Джон Суитц
В ролях: Рэйчел Николс, Мисси Пайл, Элфи Оуэн-Аллен, Мекхай Файфер, Пол Гилфойл, Даниэль Роуз Расселл, Джина Ли, Ниа Дюн

О фильме:
На планете Земля зверствует страшный вирус, превращающий людей в безмозглых и агрессивных тварей. Доктор Лорен в составе небольшой группы направлена в центр города с заданием найти и спасти незаражённых выживших.


Страна: США
Студия: New Artists Alliance, Parkside Pictures, Tadross Media Group
Продолжительность: 01:32:01
Перевод: Любительский многоголосый | ViruseProject

Файл
Кодек: x.264
Качество: BDRip 1080p | Pandemic.2016.1080p.BluRay.x264-VETO
Видео: MPEG-4 AVC, 1920x816, 8686 Kбит/с, 23.976 кадр/с
Звук: ?
Аудио #1: Русский ( АС3, 2ch, 256 Кбит/с, 48.0 KHz) Любительский (многоголосый, закадровый) ViruseProject
Аудио #2: Английский ( DTS, 6ch, 1510 Кбит/с, 48.0 KHz)
Субтитры: английские
Источник: Pandemic.2016.1080p.BluRay.x264-VETO
General
Unique ID : 191205410925677536645258242473301542260 (0x8FD8D298BC5B50AAA6CF88B1B2028574)
Complete name : Pandemic.2016.BDRip.1080p.mkv
Format : Matroska
Format version : Version 4
File size : 6.72 GiB
Duration : 1 h 32 min
Overall bit rate : 10.5 Mb/s
Encoded date : UTC 2018-11-29 10:37:45
Writing application : mkvmerge v7.1.0 ('Good Love') 64bit built on Jul 27 2014 13:06:55
Writing library : libebml v1.3.0 + libmatroska v1.4.1

Video
ID : 1
Format : AVC
Format/Info : Advanced Video Codec
Format profile : [email protected]
Format settings : CABAC / 5 Ref Frames
Format settings, CABAC : Yes
Format settings, ReFrames : 5 frames
Codec ID : V_MPEG4/ISO/AVC
Duration : 1 h 32 min
Bit rate : 8 686 kb/s
Width : 1 920 pixels
Height : 816 pixels
Display aspect ratio : 2.35:1
Frame rate mode : Constant
Frame rate : 23.976 (24000/1001) FPS
Color space : YUV
Chroma subsampling : 4:2:0
Bit depth : 8 bits
Scan type : Progressive
Bits/(Pixel*Frame) : 0.231
Stream size : 5.58 GiB (83%)
Writing library : x264 core 148 r2665 a01e339
Encoding settings : cabac=1 / ref=5 / deblock=1:-1:-1 / analyse=0x3:0x133 / me=umh / subme=8 / psy=1 / psy_rd=1.00:0.15 / mixed_ref=1 / me_range=16 / chroma_me=1 / trellis=1 / 8x8dct=1 / cqm=0 / deadzone=21,11 / fast_pskip=0 / chroma_qp_offset=-4 / threads=24 / lookahead_threads=4 / sliced_threads=0 / nr=0 / decimate=1 / interlaced=0 / bluray_compat=0 / constrained_intra=0 / bframes=3 / b_pyramid=2 / b_adapt=2 / b_bias=0 / direct=3 / weightb=1 / open_gop=0 / weightp=2 / keyint=240 / keyint_min=23 / scenecut=40 / intra_refresh=0 / rc_lookahead=50 / rc=2pass / mbtree=1 / bitrate=8686 / ratetol=1.0 / qcomp=0.60 / qpmin=10 / qpmax=69 / qpstep=4 / cplxblur=20.0 / qblur=0.5 / ip_ratio=1.40 / aq=1:1.00
Language : English
Default : Yes
Forced : No

Audio #1
ID : 2
Format : AC-3
Format/Info : Audio Coding 3
Commercial name : Dolby Digital
Codec ID : A_AC3
Duration : 1 h 32 min
Bit rate mode : Constant
Bit rate : 256 kb/s
Channel(s) : 2 channels
Channel layout : L R
Sampling rate : 48.0 kHz
Frame rate : 31.250 FPS (1536 SPF)
Bit depth : 16 bits
Compression mode : Lossy
Stream size : 169 MiB (2%)
Language : Russian
Service kind : Complete Main
Default : Yes
Forced : No

Audio #2
ID : 3
Format : DTS
Format/Info : Digital Theater Systems
Codec ID : A_DTS
Duration : 1 h 32 min
Bit rate mode : Constant
Bit rate : 1 509 kb/s
Channel(s) : 6 channels
Channel layout : C L R Ls Rs LFE
Sampling rate : 48.0 kHz
Frame rate : 93.750 FPS (512 SPF)
Bit depth : 24 bits
Compression mode : Lossy
Stream size : 993 MiB (14%)
Language : English
Default : No
Forced : No

Text
ID : 4
Format : UTF-8
Codec ID : S_TEXT/UTF8
Codec ID/Info : UTF-8 Plain Text
Duration : 1 h 26 min
Bit rate : 49 b/s
Count of elements : 849
Stream size : 31.4 KiB (0%)
Language : English
Default : No
Forced : No

Menu
00:00:00.000 : en:00:00:00.000
00:09:47.712 : en:00:09:47.712
00:17:12.782 : en:00:17:12.782
00:25:10.384 : en:00:25:10.384
00:33:38.808 : en:00:33:38.808
00:39:56.060 : en:00:39:56.060
00:49:01.939 : en:00:49:01.939
00:57:03.962 : en:00:57:03.962
01:04:01.796 : en:01:04:01.796
01:12:30.179 : en:01:12:30.179
01:20:08.137 : en:01:20:08.137
01:27:56.855 : en:01:27:56.855
Источник http://BlaTor.org

Внимание! AdBlock блокирует показ скриншотов, все вопросы к разработчикам )))
Трекер:  [ 01-Дек-2018 08:50 ]

  

Скачать .torrent

Размер .torrent файла 17 KB


Размер: 6.72 GB
Хэш (hash) релиза: 62b329ca1c7ee0db2cf5b960f3037079a14cc8bd
Подписка на обновления:

Торренты, похожие на Пандемия Pandemic скачать торрент

Форум Название Автор Размер S L Добавлен
Зарубежные фильмы 2016-2019 (Новинки зарубежного кино) ·· Пандемия / Pandemic (Джон Суитц) [2016, Фантастика, боевик, триллер, BDRip 720p] Galfimbul 48205469194.49 GB 0 0 1461737762

09:16

27-Апр-16

Зарубежные фильмы 2016-2019 (Новинки зарубежного кино) ·· Пандемия / Pandemic (Джон Суитц) [2016, Фантастика, боевик, триллер, HDRip] Galfimbul 14675496961.37 GB 0 0 1461737753

09:15

27-Апр-16

Зарубежные фильмы 2016-2019 (Новинки зарубежного кино) ·· Пандемия / Pandemic (Джон Суитц) [2016, Фантастика, боевик, триллер, WEB-DL] ViruseProject Galfimbul 15699742721.46 GB 0 0 1460538648

12:10

13-Апр-16

Зарубежные фильмы 2016-2019 (Новинки зарубежного кино) ·· Пандемия / Pandemic (Джон Суитц) [2016, Фантастика, боевик, триллер, WEB-DL 720p] ViruseProject Galfimbul 28828061962.68 GB 0 0 1460538624

12:10

13-Апр-16

Зарубежные фильмы 2016-2019 (Новинки зарубежного кино) ·· Пандемия / Pandemic (Джон Суитц) [2016, Фантастика, боевик, триллер, WEB-DLRip] Galfimbul 15614914561.45 GB 0 0 1459868077

17:54

5-Апр-16

Зарубежные фильмы 2016-2019 (Новинки зарубежного кино) ·· Пандемия / Pandemic (Джон Суитц) [2016, Фантастика, боевик, триллер, WEB-DL 720p] Galfimbul 31496395122.93 GB 0 0 1459862196

16:16

5-Апр-16

Еще никто не оставлял запись к записи скачать торрент Пандемия Pandemic . Будь первым!

!Обратная связь