Скачать через торрент Просто друзья Gewoon Vrienden Фильм бесплатно в хорошем качестве torrent

Скачивайте на UnionPeer.org фильмы через торрент без регистрации. Новинки кино в хорошем качестве через торрент. На UnionPeer.org можно скачать через торрент фильмы 2014 и 2015 годов. Самые новые фильмы.

Скачать торрент Просто друзья Gewoon Vrienden бесплатно через .torrent фильм мультфильм сериал

Статистика раздачи
Размер:  1.37 GB   |    Зарегистрирован:  6 дней   |    .torrent скачан:  67 раз   |   
Раздают:  1  
   
загрузка...
 
Автор Сообщение

Galfimbul

avatar Galfimbul


Просто друзья / Gewoon Vrienden

Год выпуска: 2018
Жанр: Комедия, мелодрама, гей-тема
Выпущено: Нидерланды, CTM Films
Режиссер: Эллен Смит
В ролях: Мадж Мардо, Йоша Страдовски, Мохамад Алахмад, Дженни Ареан, Юнес Бадран, Айдын Балчи, Моник Барендрехт, Рутгер Бьюгелинг, Сьюдерд Драгцма, Джудит Эдиксховен, Соня Эйкен, Малькольм Хьюго Гленн, Стэн Гобел, Ренске Хеттинга, Таня Джесс, Миранда Юнглинг, Нимуэ Вальравен

О фильме: Убежав от насыщенной ночной жизни в Амстердаме, Джад возвращается к интеллигентным сирийским родителям в Алмере. Джад ищет временную работу и устраивается в службу услуг по ведению домашнего хозяйства и уходу на дому, его прикрепляют к Анс, разговорчивой пожилой женщине. Там Джад знакомится с ее любимым внуком Йорисом. Йорис ежедневно тренируется и обладает красивым мускулистым телом. Он плохо разбирается в выражении своих чувств. Тем не менее, скоро между парнями вспыхивает романтичная влюбленность, но у их родителей очень разные представления о рассовом происхождении и классовых различиях. Несмотря на все отличия в характерах и социальных статусах, романтичные и трогательные главные герои преодолеют все стереотипы и проблемы, а главное, докажут, что быть геем не является «проблемой»!



Техданные
Качество: HDTVRip (720p)
Видео: MPEG-4 AVC, 2200 Kb/s, 1280x720, 25.000 FPS
Аудио: AC3, 2 ch, 192 Кбит/с
Продолжительность: 01:22:23
Перевод: Любительский двухголосый закадровый (LakeFilms)
Присутствует реклама!
General
Unique ID : 31729946632104307673996191993466400680 (0x17DEF726C3DAEB2E920A66DCBA6B2FA8)
Complete name : E:Gewoon.Vrienden.2018.720p.HDTVRip.LakeFilms.mkv
Format : Matroska
Format version : Version 4 / Version 2
File size : 1.37 GiB
Duration : 1h 22mn
Overall bit rate : 2 386 Kbps
Writing application : XviD4PSP 7.0.459 DAILY
Writing library : Lavf57.71.100
ENCODING_INFO : MATROSKA,WEBM > MKV / H264 > X264 ABR 2200kbps Very Fast / AAC-LC > AC3 CBR 192kbps

Video
ID : 1
Format : AVC
Format/Info : Advanced Video Codec
Format profile : High@L3.1
Format settings, CABAC : Yes
Format settings, ReFrames : 4 frames
Codec ID : V_MPEG4/ISO/AVC
Duration : 1h 22mn
Bit rate : 2 200 Kbps
Width : 1 280 pixels
Height : 720 pixels
Display aspect ratio : 16:9
Frame rate mode : Constant
Frame rate : 25.000 fps
Color space : YUV
Chroma subsampling : 4:2:0
Bit depth : 8 bits
Scan type : Progressive
Bits/(Pixel*Frame) : 0.095
Stream size : 1.24 GiB (90%)
Writing library : x264 core 157 r2901M 7d0ff22
Encoding settings : cabac=1 / ref=1 / deblock=1:-2:-2 / analyse=0x3:0x113 / me=hex / subme=2 / psy=1 / psy_rd=1.00:0.00 / mixed_ref=0 / me_range=16 / chroma_me=1 / trellis=0 / 8x8dct=1 / cqm=0 / deadzone=21,11 / fast_pskip=1 / chroma_qp_offset=0 / threads=5 / lookahead_threads=1 / sliced_threads=0 / nr=0 / decimate=1 / interlaced=0 / bluray_compat=0 / constrained_intra=0 / bframes=3 / b_pyramid=2 / b_adapt=1 / b_bias=0 / direct=1 / weightb=1 / open_gop=0 / weightp=1 / keyint=250 / keyint_min=25 / scenecut=40 / intra_refresh=0 / rc_lookahead=10 / rc=abr / mbtree=1 / bitrate=2200 / ratetol=1.0 / qcomp=0.60 / qpmin=0 / qpmax=69 / qpstep=4 / ip_ratio=1.40 / aq=1:1.00
Default : Yes
Forced : No

Audio
ID : 2
Format : AC-3
Format/Info : Audio Coding 3
Mode extension : CM (complete main)
Format settings, Endianness : Big
Codec ID : A_AC3
Duration : 1h 22mn
Bit rate mode : Constant
Bit rate : 192 Kbps
Channel(s) : 2 channels
Channel positions : Front: L R
Sampling rate : 48.0 KHz
Bit depth : 16 bits
Compression mode : Lossy
Stream size : 113 MiB (8%)
Default : Yes
Forced : No
Источник http://BlaTor.org

Трекер:  [ 04-Дек-2018 17:40 ]

  

Скачать .torrent

Размер .torrent файла 14 KB


Размер: 1.37 GB
Хэш (hash) релиза: 71b7e0c3120ded8b0f5106c7246ec8204d5a0417
Подписка на обновления:

Торренты, похожие на Просто друзья Gewoon Vrienden скачать торрент

Форум Название Автор Размер S L Добавлен
Зарубежные фильмы 2016-2018 (Новинки зарубежного кино) ·%· Просто друзья / Gewoon Vrienden (2018) HDTVRip | LakeFilms Galfimbul 12259736881.14 GB 0 0 1544009463

14:31

5-Дек-18

Зарубежные фильмы 2016-2018 (Новинки зарубежного кино) ·· Просто друзья / Gewoon Vrienden (2018) HDTVRip 720p | GreenРай Studio Galfimbul 22698830772.11 GB 0 0 1529056537

12:55

15-Июн-18

Зарубежные фильмы 2016-2018 (Новинки зарубежного кино) ·· Просто друзья / Gewoon Vrienden (2018) HDTVRip | GreenРай Studio Galfimbul 14722638681.37 GB 0 0 1529056521

12:55

15-Июн-18

Еще никто не оставлял запись к записи скачать торрент Просто друзья Gewoon Vrienden . Будь первым!

!Обратная связь