Скачать через торрент Голос улиц Прямиком из Комптона Фильм бесплатно в хорошем качестве torrent

Скачивайте на UnionPeer.org фильмы через торрент без регистрации. Новинки кино в хорошем качестве через торрент. На UnionPeer.org можно скачать через торрент фильмы 2014 и 2015 годов. Самые новые фильмы.

Скачать торрент Голос улиц Прямиком из Комптона бесплатно через .torrent фильм мультфильм сериал

Статистика раздачи
Размер:  5.81 GB   |    Зарегистрирован:  6 дней   |    .torrent скачан:  38 раз   |   
Раздают:  1  
   
загрузка...
 
Автор Сообщение

Galfimbul

avatar Galfimbul


Голос улиц / Прямиком из Комптона /Straight Outta Compton

Год выхода: 2015
Жанр: драма, криминал, биография, история, музыка
Режиссер: Ф. Гэри Грей
В ролях: О’Ши Джексон мл., Кори Хоукинс, Джейсон Митчелл, Нил Браун мл., Элдис Ходж, Марлон Йэтс мл., Р. Маркус Тейлор, Карра Паттерсон, Александра Шипп, Пол Джаматти

О фильме:
1987 год. Пятеро молодых и дерзких парней из пригорода Лос-Анджелеса начинают свой стремительный путь к славе… Они станут голосом улиц, и весь мир будет у ног бунтарей из N.W.A.



Страна: США
Студия: Universal Pictures, Legendary Entertainment, New Line Cinema
Продолжительность: 02:46:45
Перевод: Авторский (одноголосый, закадровый) - Вячеслав Котов



Файл
Кодек: H264
Качество: BDRip 720p
Видео: 1280x536 23.976fps 4113 kb/s
Аудио 1: AC3, 48000 Hz, 5.1, 640 kb/s | RUS Вячеслав Котов
Аудио 2: AAC, 48000 Hz, 5.1, 224 kb/s | ENG
Субтитры: английские

Семпл
General
Unique ID : 329310810095670662074173669935256476592 (0xF7BEF47C04A6A0E046CD8ADED9C89BB0)
Complete name : C:DownloadsStraight Outta Compton.2015.DC.720p.mkv
Format : Matroska
Format version : Version 4
File size : 5.81 GiB
Duration : 2 h 46 min
Overall bit rate : 4 986 kb/s
Encoded date : UTC 2018-12-04 09:30:07
Writing application : mkvmerge v28.2.0 ('The Awakening') 64-bit
Writing library : libebml v1.3.6 + libmatroska v1.4.9
Cover : Yes
Attachments : cover.jpg

Video
ID : 1
Format : AVC
Format/Info : Advanced Video Codec
Format profile : High@L4.1
Format settings : CABAC / 5 Ref Frames
Format settings, CABAC : Yes
Format settings, ReFrames : 5 frames
Codec ID : V_MPEG4/ISO/AVC
Duration : 2 h 46 min
Bit rate : 4 113 kb/s
Width : 1 280 pixels
Height : 536 pixels
Display aspect ratio : 2.40:1
Frame rate mode : Constant
Frame rate : 23.976 (24000/1001) FPS
Color space : YUV
Chroma subsampling : 4:2:0
Bit depth : 8 bits
Scan type : Progressive
Bits/(Pixel*Frame) : 0.250
Stream size : 4.79 GiB (82%)
Writing library : x264 core 148 r2638 7599210
Encoding settings : cabac=1 / ref=5 / deblock=1:1:1 / analyse=0x3:0x133 / me=umh / subme=8 / psy=1 / psy_rd=1.00:0.00 / mixed_ref=1 / me_range=16 / chroma_me=1 / trellis=1 / 8x8dct=1 / cqm=0 / deadzone=21,11 / fast_pskip=0 / chroma_qp_offset=-2 / threads=17 / lookahead_threads=2 / sliced_threads=0 / nr=0 / decimate=1 / interlaced=0 / bluray_compat=0 / constrained_intra=0 / bframes=3 / b_pyramid=2 / b_adapt=2 / b_bias=0 / direct=3 / weightb=1 / open_gop=0 / weightp=2 / keyint=240 / keyint_min=23 / scenecut=40 / intra_refresh=0 / rc_lookahead=50 / rc=2pass / mbtree=1 / bitrate=4113 / ratetol=1.0 / qcomp=0.60 / qpmin=0 / qpmax=69 / qpstep=4 / cplxblur=20.0 / qblur=0.5 / ip_ratio=1.40 / aq=1:1.00
Language : English
Default : Yes
Forced : No

Audio #1
ID : 2
Format : AC-3
Format/Info : Audio Coding 3
Commercial name : Dolby Digital
Codec ID : A_AC3
Duration : 2 h 46 min
Bit rate mode : Constant
Bit rate : 640 kb/s
Channel(s) : 6 channels
Channel layout : L R C LFE Ls Rs
Sampling rate : 48.0 kHz
Frame rate : 31.250 FPS (1536 SPF)
Bit depth : 16 bits
Compression mode : Lossy
Stream size : 763 MiB (13%)
Title : AVO Котов Вячеслав Олегович (mupoxa)
Language : Russian
Service kind : Complete Main
Default : Yes
Forced : Yes

Audio #2
ID : 3
Format : AAC LC
Format/Info : Advanced Audio Codec Low Complexity
Codec ID : A_AAC-2
Duration : 2 h 46 min
Bit rate : 224 kb/s
Channel(s) : 6 channels
Channel layout : C L R Ls Rs LFE
Sampling rate : 48.0 kHz
Frame rate : 46.875 FPS (1024 SPF)
Compression mode : Lossy
Stream size : 267 MiB (4%)
Language : English
Default : No
Forced : No

Text
ID : 4
Format : VobSub
Muxing mode : zlib
Codec ID : S_VOBSUB
Codec ID/Info : Picture based subtitle format used on DVDs
Duration : 2 h 46 min
Bit rate : 10.9 kb/s
Count of elements : 3035
Stream size : 12.9 MiB (0%)
Language : English
Default : No
Forced : No

Menu
00:00:00.000 : en:00:00:00.000
00:05:46.137 : en:00:05:46.137
00:09:53.676 : en:00:09:53.676
00:17:30.257 : en:00:17:30.257
00:26:33.008 : en:00:26:33.008
00:35:38.261 : en:00:35:38.261
00:47:27.011 : en:00:47:27.011
00:55:36.750 : en:00:55:36.750
01:04:40.209 : en:01:04:40.209
01:11:25.739 : en:01:11:25.739
01:18:58.942 : en:01:18:58.942
01:25:45.265 : en:01:25:45.265
01:33:54.545 : en:01:33:54.545
01:44:19.795 : en:01:44:19.795
01:54:01.542 : en:01:54:01.542
02:02:53.991 : en:02:02:53.991
02:16:10.120 : en:02:16:10.120
02:26:22.315 : en:02:26:22.315
02:33:04.967 : en:02:33:04.967
02:39:19.883 : en:02:39:19.883
Перевод и озвучка Вячеслава Котова доступны благодаря Переулку Переводмана и
marshall cogburn, Loki1982, stimco, OMG_Hell_Yeah, sivservik, Saviow, iVov4ik, Wise_Master, ziox, shagrath88, Старый, stevnin
Релиз от:
Источник http://BlaTor.org

Трекер:  [ 05-Дек-2018 14:40 ]

  

Скачать .torrent

Размер .torrent файла 116 KB


Размер: 5.81 GB
Хэш (hash) релиза: 31258c6f8f52fe3671d9537e1c6526de020d75ce
Подписка на обновления:

Еще никто не оставлял запись к записи скачать торрент Голос улиц Прямиком из Комптона . Будь первым!

!Обратная связь