Скачать через торрент Школа The School Фильм бесплатно в хорошем качестве torrent

Скачивайте на UnionPeer.org фильмы через торрент без регистрации. Новинки кино в хорошем качестве через торрент. На UnionPeer.org можно скачать через торрент фильмы 2014 и 2015 годов. Самые новые фильмы.

Скачать торрент Школа The School бесплатно через .torrent фильм мультфильм сериал

Статистика раздачи
Размер:  4.16 GB   |    Зарегистрирован:  7 дней   |    .torrent скачан:  21 раз   |   
Раздают:  1  
   
загрузка...
 
Автор Сообщение

Galfimbul

avatar Galfimbul


Школа /The School

Год выхода: 2018
Жанр: ужасы, триллер
Режиссер: Сторм Эшвуд
В ролях: Милли Олкок, Меган Друри, Николас Хоуп, Тексас Уоттерстон, Уилл МакДональд, Джек Равалд, Алексиа Сантосуссо, Хони Поа, Сэсси Соупидис, Джаспер Ллойд, Тереза МакКарти, Кристиан Уиллис, Шерил Крэйг, Шанель Мюллер

О фильме:
Пытаясь помочь сыну, впавшему в кому, его мать оказывается в заброшенной школе. Чтобы выжить в месте, где потусторонний мир соприкасается с реальным, ей придётся взглянуть в глаза истинному страху.



Страна: Австралия
Студия: Bronte Pictures, Head Gear Films, Kreo Films FZ, Metrol Technology
Продолжительность: 01:28:47
Перевод: Дублированный [iTunes]

Файл
Кодек: H.264
Качество: BDRip 720p
Видео: AVC, 1280x536 (2.40:1), 23.976 fps ~ 5695 Kbps
Звук:
AC3, 48 KHz, 6 ch ~ 384 Kb/s (русский)
AC3, 48 KHz, 6 ch ~ 640 Kb/s (английский)
Субтитры: английские
Общее
Уникальный идентификатор : 200617856475486305126044488433565513646 (0x96ED97FDCDD426CDB10B362B5D2137AE)
Полное имя : Q:TorFgua_the_school_2018_720p.mkv
Формат : Matroska
Версия формата : Version 2
Размер файла : 4,16 Гбайт
Продолжительность : 1 ч. 28 м.
Общий поток : 6715 Кбит/сек
Дата кодирования : UTC 2018-12-05 09:48:14
Программа кодирования : mkvmerge v5.4.0 ('Piper') built on Mar 10 2012 13:34:39
Библиотека кодирования : libebml v1.2.3 + libmatroska v1.3.0
DURATION : 01:28:47.155000000
NUMBER_OF_FRAMES : 127724
NUMBER_OF_BYTES : 3788461408
_STATISTICS_WRITING_APP : mkvmerge v9.0.1 ('Obstacles') 64bit
_STATISTICS_WRITING_DATE_UTC : 2018-10-24 22:06:22
_STATISTICS_TAGS : BPS DURATION NUMBER_OF_FRAMES NUMBER_OF_BYTES

Видео
Идентификатор : 1
Формат : AVC
Формат/Информация : Advanced Video Codec
Профиль формата : High@L4.1
Параметр CABAC формата : Да
Параметр ReFrames формата : 5 кадров
Идентификатор кодека : V_MPEG4/ISO/AVC
Продолжительность : 1 ч. 28 м.
Битрейт : 5696 Кбит/сек
Ширина : 1280 пикселей
Высота : 536 пикселей
Соотношение сторон : 2,40:1
Частота кадров : 23,976 кадра/сек
Цветовое пространство : YUV
Субдискретизация насыщенности : 4:2:0
Битовая глубина : 8 бит
Тип развёртки : Прогрессивная
Бит/(Пиксели*Кадры) : 0.346
Размер потока : 3,45 Гбайт (83%)
Библиотека кодирования : x264 core 155 r2901 7d0ff22
Настройки программы : cabac=1 / ref=5 / deblock=1:0:0 / analyse=0x3:0x113 / me=umh / subme=8 / psy=1 / psy_rd=1.00:0.00 / mixed_ref=1 / me_range=16 / chroma_me=1 / trellis=2 / 8x8dct=1 /

cqm=0 / deadzone=21,11 / fast_pskip=0 / chroma_qp_offset=-2 / threads=17 / lookahead_threads=2 / sliced_threads=0 / nr=0 / decimate=1 / interlaced=0 / bluray_compat=0 / constrained_intra=0 /

bframes=3 / b_pyramid=2 / b_adapt=1 / b_bias=0 / direct=1 / weightb=1 / open_gop=0 / weightp=2 / keyint=250 / keyint_min=23 / scenecut=40 / intra_refresh=0 / rc_lookahead=50 / rc=2pass / mbtree=1

/ bitrate=5696 / ratetol=1.0 / qcomp=0.60 / qpmin=0 / qpmax=69 / qpstep=4 / cplxblur=20.0 / qblur=0.5 / ip_ratio=1.40 / aq=1:1.00
Язык : English
Default : Да
Forced : Нет

Аудио #1
Идентификатор : 2
Формат : AC-3
Формат/Информация : Audio Coding 3
Расширение режима : CM (complete main)
Идентификатор кодека : A_AC3
Продолжительность : 1 ч. 28 м.
Вид битрейта : Постоянный
Битрейт : 384 Кбит/сек
Каналы : 6 каналов
Расположение каналов : Front: L C R, Side: L R, LFE
Частота : 48,0 КГц
Битовая глубина : 16 бит
Метод сжатия : С потерями
Размер потока : 244 Мбайт (6%)
Заголовок : dub
Язык : Russian
Default : Да
Forced : Нет

Аудио #2
Идентификатор : 3
Формат : AC-3
Формат/Информация : Audio Coding 3
Расширение режима : CM (complete main)
Идентификатор кодека : A_AC3
Продолжительность : 1 ч. 28 м.
Вид битрейта : Постоянный
Битрейт : 640 Кбит/сек
Каналы : 6 каналов
Расположение каналов : Front: L C R, Side: L R, LFE
Частота : 48,0 КГц
Битовая глубина : 16 бит
Метод сжатия : С потерями
Размер потока : 406 Мбайт (10%)
Язык : English
Default : Нет
Forced : Нет

Текст
Идентификатор : 4
Формат : UTF-8
Идентификатор кодека : S_TEXT/UTF8
Идентификатор кодека/Информация : UTF-8 Plain Text
Язык : English
Default : Нет
Forced : Нет

Меню
00:00:00.000 : en:00:00:00.000
00:07:32.952 : en:00:07:32.952
00:15:37.770 : en:00:15:37.770
00:23:28.240 : en:00:23:28.240
00:31:16.208 : en:00:31:16.208
00:37:46.347 : en:00:37:46.347
00:45:19.091 : en:00:45:19.091
00:52:51.001 : en:00:52:51.001
01:02:38.463 : en:01:02:38.463
01:06:23.229 : en:01:06:23.229
01:14:21.666 : en:01:14:21.666
01:23:19.620 : en:01:23:19.620
Семпл Источник http://BlaTor.org

Трекер:  [ 06-Дек-2018 01:10 ]

  

Скачать .torrent

Размер .torrent файла 21 KB


Размер: 4.16 GB
Хэш (hash) релиза: 699c5c7e3c69ae326c5f7d80c27b9d23058986be
Подписка на обновления:

Торренты, похожие на Школа The School скачать торрент

Форум Название Автор Размер S L Добавлен
Зарубежные фильмы 2016-2018 (Новинки зарубежного кино) ·%· Школа / The School (2018) BDRip-AVC от OlLanDGroup | iTunes Galfimbul 18437562151.72 GB 0 0 1543856502

20:01

3-Дек-18

Зарубежные фильмы 2016-2018 (Новинки зарубежного кино) ·%· Школа / The School (2018) HDRip-AVC от ExKinoRay | iTunes Galfimbul 780854681745 MB 0 0 1543704041

01:40

2-Дек-18

Зарубежные фильмы 2016-2018 (Новинки зарубежного кино) ·%· Школа / The School (2018) BDRip от ExKinoRay | iTunes Galfimbul 15263822441.42 GB 0 0 1543095630

00:40

25-Ноя-18

Зарубежные фильмы 2016-2018 (Новинки зарубежного кино) ·%· Школа / The School (2018) BDRip 1080p | iTunes Galfimbul 80355148107.48 GB 0 0 1542991865

19:51

23-Ноя-18

Зарубежные фильмы 2016-2018 (Новинки зарубежного кино) ·%· Школа / The School (2018) BDRip 1080p | iTunes Galfimbul 82133831207.65 GB 0 0 1542927019

01:50

23-Ноя-18

Зарубежные фильмы 2016-2018 (Новинки зарубежного кино) ·%· Школа / The School (2018) BDRip от MegaPeer | iTunes Galfimbul 15118438401.41 GB 0 0 1542898817

18:00

22-Ноя-18

Зарубежные фильмы 2016-2018 (Новинки зарубежного кино) ·%· Школа / The School (2018) WEBRip | L2 Galfimbul 879429632839 MB 0 0 1541244041

14:20

3-Ноя-18

Зарубежные фильмы 2016-2018 (Новинки зарубежного кино) ·%· Школа / The School (2018) WEBRip | L1 Galfimbul 12508364801.16 GB 0 0 1540911665

18:01

30-Окт-18

Зарубежные фильмы до 2016 ·· Школа рока / The School of Rock (Ричард Линклейтер / Richard Linklater) [2003, США, Германия, комедия, музыка, HDRip] AVO (Сергей Визгунов) Galfimbul 15538810881.45 GB 0 0 1489775659

21:34

17-Мар-17

Зарубежные фильмы до 2016 ·· Школа рока / The School of Rock (Ричард Линклейтер / Richard Linklater) [2003, США, Германия, комедия, музыка, VHSRip] [FullScreen] Dub (Премьер) Galfimbul 14677647361.37 GB 0 0 1450103462

17:31

14-Дек-15

Зарубежные фильмы до 2016 ·· Школа рока / The School of Rock (Ричард Линклейтер / Richard Linklater) [2003, США, Германия, комедия, музыка, BDRip] DUB + MVO (Видеограмм) + DVO (Tycoon-studio) + AVO (Рудой) + Sub rus + Original (Eng) Galfimbul 29748331382.77 GB 0 0 1341338520

21:02

3-Июл-12

Зарубежные фильмы до 2016 ·· Школа рока / The School of Rock (Ричард Линклейтер / Richard Linklater) [2003, США, Германия, комедия, музыка, BDRip-AVC] Dub + MVO + Sub (rus, eng) + Original (eng) Galfimbul 31395934962.92 GB 0 0 1340700000

11:40

26-Июн-12

Зарубежные фильмы до 2016 ·· Школа рока / The School of Rock (Ричард Линклейтер / Richard Linklater) [2003, США, Германия, комедия, музыка, DVD9 (Custom)] MVO(Tycoon-studio) Sub Rus + Original Eng Galfimbul 75497697287.03 GB 0 0 1337013120

19:32

14-Май-12

Зарубежные фильмы до 2016 ·· Школа рока / The School of Rock (Ричард Линклейтер / Richard Linklater) [2003 г., комедия, музыкальный, DVDRip] Dub Fiery storm 14685651521.37 GB 0 0 1290621035

20:50

24-Ноя-10

Азиатские фильмы ·· Школа на прицеле / School in the Crosshairs / The Aimed School / Nerawareta gakuen (Нобухико Обаяси / Nobuhiko Ôbayashi) [1981, Япония, фантастика, DVDRip] Sub Rus, Eng + Original Jap Galfimbul 15394041991.43 GB 0 0 1424781947

15:45

24-Фев-15

Зарубежные сериалы ·· Школа "Мурим" / Murimhakgyo / Moorim School: Saga of the Brave [2/20] [2016, фантастика, романтика, школа, боевые искусства, HDTVRip] [RAW] [720p] DVO (SoftBox) Galfimbul 48911305174.56 GB 0 0 1452753312

09:35

14-Янв-16

Мультфильмы до 2016 ·· Скуби-Ду и Школа Оборотней / Скуби-Ду и Школа Вампиров / Scooby-Doo and the Ghoul School (Чарльз А. Николс / Charles A. Nichols, Рэй Паттерсон / Ray Patterson) [1988 г., мультфильм, DVD5 (Custom)] AVO (Михалев) + DUB + ENG Galfimbul 39270522883.66 GB 0 0 1347384060

20:21

11-Сен-12

Зарубежные фильмы 2016-2018 (Новинки зарубежного кино) ·· Средняя Школа: Худшие Годы Моей Жизни / Middle School: The Worst Years Of My Life (2016) BDRip 1080p | L Galfimbul 64395449906 GB 0 0 1526214632

15:30

13-Май-18

Азиатские фильмы ·· Школа "Счастливые жёлуди" / The Shiinomi School / Shiinomi gakuen (Хироси Симидзу / Hiroshi Shimizu) [1955, Япония, драма, DVDRip] + Sub Rus Galfimbul 15729714811.46 GB 0 0 1514197865

13:31

25-Дек-17

Еще никто не оставлял запись к записи скачать торрент Школа The School . Будь первым!

!Обратная связь