Скачать через торрент Ночная смена Nightshift Фильм бесплатно в хорошем качестве torrent

Скачивайте на UnionPeer.org фильмы через торрент без регистрации. Новинки кино в хорошем качестве через торрент. На UnionPeer.org можно скачать через торрент фильмы 2014 и 2015 годов. Самые новые фильмы.

Скачать торрент Ночная смена Nightshift бесплатно через .torrent фильм мультфильм сериал

Статистика раздачи
Размер:  1.72 GB   |    Зарегистрирован:  7 месяцев   |    .torrent скачан:  67 раз   |   
Раздают:  1  
   
загрузка...
 
Автор Сообщение

Galfimbul

avatar Galfimbul


Ночная смена /Nightshift

Год выхода: 2018
Жанр: Ужасы
Режиссер: Даниэль Аттрилл
В ролях: Даниэль Аттрилл, Луис Тейлор, Джон Гуэррьеро, Билли Файф, Саманта Ланн
О фильме:
Эми устраивается на работу в ночную смену в отеле, где десять лет назад были жестоко убиты все постояльцы. В первую же ночь девушка сталкивается со таинственными событиями и понимает, что давние кровавые убийства не прошли для отеля бесследно.



Страна: Великобритания, Greenflash Pictures, Grump Films, Blue Shadows Films
Продолжительность: 01:20:44
Перевод: Любительский (двухголосый закадровый) | HiWay Grope

Файл
Кодек: MPEG-4 AVC/x.264
Качество: WEBRip 720p
Видео: 1280x578, 23.976 fps, ~2668 kbps, 0.150 bit/pixel
Звук:
Аудио rus: AC3, 48 kHz, 6 ch, 384 Kbps
Субтитры: отсутствуют

Реклама: присутствует

Семпл
General
Unique ID : 28691875213324550460970522837683146612 (0x1595DAAA73CCD54F5699002199F20F74)
Complete name : D:Nightshift.2018.720p.WEBRip.HiWayGropeNightshift.2018.720p.WEBRip.HiWayGrope.mkv
Format : Matroska
Format version : Version 4
File size : 1.72 GiB
Duration : 1 h 20 min
Overall bit rate : 3 054 kb/s
Encoded date : UTC 2018-12-23 13:17:08
Writing application : mkvmerge v28.1.0 ('Morning Child') 64-bit
Writing library : libebml v1.3.6 + libmatroska v1.4.9

Video
ID : 1
Format : AVC
Format/Info : Advanced Video Codec
Format profile : Main@L3.1
Format settings : CABAC / 4 Ref Frames
Format settings, CABAC : Yes
Format settings, RefFrames : 4 frames
Codec ID : V_MPEG4/ISO/AVC
Duration : 1 h 20 min
Bit rate : 2 668 kb/s
Width : 1 280 pixels
Height : 578 pixels
Display aspect ratio : 2.2:1
Frame rate mode : Constant
Frame rate : 23.976 (24000/1001) FPS
Standard : NTSC
Color space : YUV
Chroma subsampling : 4:2:0
Bit depth : 8 bits
Scan type : Progressive
Bits/(Pixel*Frame) : 0.150
Stream size : 1.50 GiB (87%)
Language : English
Default : Yes
Forced : No
Color range : Limited
Color primaries : BT.709
Transfer characteristics : BT.709
Matrix coefficients : BT.709

Audio
ID : 2
Format : AC-3
Format/Info : Audio Coding 3
Commercial name : Dolby Digital
Codec ID : A_AC3
Duration : 1 h 20 min
Bit rate mode : Constant
Bit rate : 384 kb/s
Channel(s) : 6 channels
Channel layout : L R C LFE Ls Rs
Sampling rate : 48.0 kHz
Frame rate : 31.250 FPS (1536 SPF)
Bit depth : 16 bits
Compression mode : Lossy
Stream size : 222 MiB (13%)
Language : Russian
Service kind : Complete Main
Default : Yes
Forced : No
Релиз от: HiWay Grope
Источник http://BlaTor.org

Трекер:  [ 23-Дек-2018 20:50 ]

  

Скачать .torrent

Размер .torrent файла 17 KB


Размер: 1.72 GB
Хэш (hash) релиза: 9adb4e85b31f6dde1c3df5d9cdaf09eef554c62d
Подписка на обновления:

Торренты, похожие на Ночная смена Nightshift скачать торрент

Форум Название Автор Размер S L Добавлен
Зарубежные фильмы 2016-2018 (Новинки зарубежного кино) ·%· Ночная смена / Nightshift (2018) WEBRip | L2 Galfimbul 11806945281.1 GB 0 0 1545611557

03:32

24-Дек-18

Еще никто не оставлял запись к записи скачать торрент Ночная смена Nightshift . Будь первым!

!Обратная связь