Скачать через торрент Ночная смена Nightshift Фильм бесплатно в хорошем качестве torrent

Скачивайте на UnionPeer.org фильмы через торрент без регистрации. Новинки кино в хорошем качестве через торрент. На UnionPeer.org можно скачать через торрент фильмы 2014 и 2015 годов. Самые новые фильмы.

Скачать торрент Ночная смена Nightshift бесплатно через .torrent фильм мультфильм сериал

Статистика раздачи
Размер:  1.1 GB   |    Зарегистрирован:  11 месяцев   |    .torrent скачан:  37 раз   |   
Раздают:  1  
 

Скачать Ночная смена / Nightshift (2018) WEBRip | L2 через torrent

 
загрузка...
 
Автор Сообщение

Galfimbul

avatar Galfimbul


Ночная смена /Nightshift

Год выхода: 2018
Жанр: Ужасы
Режиссер: Даниэль Аттрилл
В ролях: Даниэль Аттрилл, Луис Тейлор, Джон Гуэррьеро, Билли Файф, Саманта Ланн
О фильме:
Эми устраивается на работу в ночную смену в отеле, где десять лет назад были жестоко убиты все постояльцы. В первую же ночь девушка сталкивается со таинственными событиями и понимает, что давние кровавые убийства не прошли для отеля бесследно.



Страна: Великобритания, Greenflash Pictures, Grump Films, Blue Shadows Films
Продолжительность: 01:20:44
Перевод: Любительский (двухголосый закадровый) | HiWay Grope

Файл
Кодек: XviD
Качество: WEBRip
Видео: 720x320, 23.976 fps, ~1556 kbps, 0.28 bit/pixel
Звук:
Аудио rus: AC3, 48 kHz, 6 ch, 384 Kbps
Субтитры: отсутствуют

Реклама: присутствует

Семпл
General
Complete name : D:Nightshift.2018.WEBRip.HiWayGropeNightshift.2018.WEBRip.HiWayGrope.avi
Format : AVI
Format/Info : Audio Video Interleave
File size : 1.10 GiB
Duration : 1 h 20 min
Overall bit rate : 1 950 kb/s
Writing application : VirtualDubMod 1.5.10.3 (build 2550/release)
Writing library : VirtualDubMod build 2550/release

Video
ID : 0
Format : MPEG-4 Visual
Format profile : Simple@L5
Format settings : BVOP1
Format settings, BVOP : 1
Format settings, QPel : No
Format settings, GMC : No warppoints
Format settings, Matrix : Default (MPEG)
Codec ID : XVID
Codec ID/Hint : XviD
Duration : 1 h 20 min
Bit rate : 1 557 kb/s
Width : 720 pixels
Height : 320 pixels
Display aspect ratio : 2.2:1
Frame rate : 23.976 (24000/1001) FPS
Color space : YUV
Chroma subsampling : 4:2:0
Bit depth : 8 bits
Scan type : Progressive
Compression mode : Lossy
Bits/(Pixel*Frame) : 0.282
Stream size : 899 MiB (80%)
Writing library : XviD 67

Audio
ID : 1
Format : AC-3
Format/Info : Audio Coding 3
Commercial name : Dolby Digital
Codec ID : 2000
Duration : 1 h 20 min
Bit rate mode : Constant
Bit rate : 384 kb/s
Channel(s) : 6 channels
Channel layout : L R C LFE Ls Rs
Sampling rate : 48.0 kHz
Frame rate : 31.250 FPS (1536 SPF)
Bit depth : 16 bits
Compression mode : Lossy
Stream size : 222 MiB (20%)
Alignment : Split accross interleaves
Interleave, duration : 42 ms (1.00 video frame)
Interleave, preload duration : 500 ms
Service kind : Complete Main
Релиз от: HiWay Grope
Источник http://BlaTor.org

Трекер:  [ 24-Дек-2018 03:30 ]

  

Скачать .torrent

Размер .torrent файла 11 KB


Размер: 1.1 GB
Хэш (hash) релиза: 001123a64fa71b580dd030aecd01107f5526d08b
Подписка на обновления:

Торренты, похожие на Ночная смена Nightshift скачать торрент

Форум Название Автор Размер S L Добавлен
Зарубежные фильмы 2016-2018 (Новинки зарубежного кино) ·%· Ночная смена / Nightshift (2018) WEBRip 720p | L2 Galfimbul 18493660391.72 GB 0 0 1545587455

20:50

23-Дек-18

Еще никто не оставлял запись к записи скачать торрент Ночная смена Nightshift . Будь первым!

!Обратная связь