Скачать через торрент Хищник The Predator Фильм бесплатно в хорошем качестве torrent

Скачивайте на UnionPeer.org фильмы через торрент без регистрации. Новинки кино в хорошем качестве через торрент. На UnionPeer.org можно скачать через торрент фильмы 2014 и 2015 годов. Самые новые фильмы.

Скачать торрент Хищник The Predator бесплатно через .torrent фильм мультфильм сериал

Статистика раздачи
Размер:  14.43 GB   |    Зарегистрирован:  5 месяцев 1 день   |    .torrent скачан:  65 раз   |   
Раздают:  1  
   
загрузка...
 
Автор Сообщение

Galfimbul

avatar Galfimbul




Хищник /The Predator

Год выхода: 2018
Жанр: Ужасы
, фантастика, боевик, триллер, приключения
Режиссер: Шейн Блэк
В ролях: Бойд Холбрук, Треванте Роудс, Джейкоб Трамбле, Кигэн-Майкл Ки, Оливия Манн, Стерлинг К. Браун, Томас Джейн, Элфи Оуэн-Аллен, Августо Агилера, Джейк Бьюзи



О фильме: Главный герой, бывший морпех, обнаруживает злобную инопланетную расу на Земле, но никто не верит ему, что эти твари существуют. Его сын-аутист, которого все обижают в школе, становится ключевой фигурой в схватке с Хищниками, поскольку мальчик умеет невероятно быстро учить языки и, судя по всему, сможет понять пришельцев.

Страна: США, Канада
Студия: Twentieth Century Fox, Davis Entertainment, TSG Entertainment
Продолжительность: 01:46:56
Перевод(ы):
#1: Дублированный | Лицензия
#2: Профессиональный многоголосый | HDRezka Studio
#3: Авторский | М. Яроцкий

Качество: BDRip 1080p
Видео: MPEG-4 AVC, 1920x804, 14 Mbit/s, 23.976 fps
Звук:
Аудио #01: 48 kHz, DTS, 5.1, 768 Kbps | Дублированный | RUS |
Аудио #02: 48 kHz, AC3, 5.1, 448 Kbps | Дублированный | RUS |
Аудио #03: 48 kHz, AC3, 2.0, 192 Kbps | Профессиональный многоголосый | RUS |
Аудио #04: 48 kHz, DTS, 5.1, 1510 Kbps | Авторский | RUS |
Аудио #05: 48 kHz, AC3, 5.1, 640 Kbps | Авторский | RUS |
Аудио #06: 48 kHz, AC3, 5.1, 448 Kbps | Дублированный | UKR |
Аудио #07: 48 kHz, DTS, 5.1, 1510 Kbps | Оригинал | ENG |
Субтитры: Русские (Forced, full), английские

General
Unique ID : 272149652668942210599821821481200417672 (0xCCBE1DD5C295573DF5595CB687F87B88)
Complete name : D:Video111The.Predator.2018.D.MVO.AVO.BDRip.1080p.seleZen.mkv
Format : Matroska
Format version : Version 4
File size : 14.4 GiB
Duration : 1 h 46 min
Overall bit rate : 19.3 Mb/s
Movie name : The Predator 2018 from селезень
Encoded date : UTC 2018-12-24 09:28:05
Writing application : mkvmerge v29.0.0 ('Like It Or Not') 64-bit
Writing library : libebml v1.3.6 + libmatroska v1.4.9

Video
ID : 1
Format : AVC
Format/Info : Advanced Video Codec
Format profile : High@L4.1
Format settings : CABAC / 4 Ref Frames
Format settings, CABAC : Yes
Format settings, ReFrames : 4 frames
Codec ID : V_MPEG4/ISO/AVC
Duration : 1 h 46 min
Bit rate : 14.0 Mb/s
Width : 1 920 pixels
Height : 804 pixels
Display aspect ratio : 2.40:1
Frame rate mode : Constant
Frame rate : 23.976 (24000/1001) FPS
Color space : YUV
Chroma subsampling : 4:2:0
Bit depth : 8 bits
Scan type : Progressive
Bits/(Pixel*Frame) : 0.378
Stream size : 10.3 GiB (71%)
Title : CHD
Writing library : x264 core 155 r2867+74 66b5600 t_mod_Custom_2 [8-bit@all X86_64]
Encoding settings : cabac=1 / ref=4 / deblock=1:-3:-3 / analyse=0x3:0x133 / me=umh / subme=11 / psy=1 / fade_compensate=0.00 / psy_rd=0.95:0.10 / mixed_ref=1 / me_range=48 / chroma_me=1 / trellis=2 / 8x8dct=1 / cqm=0 / deadzone=21,11 / fast_pskip=0 / chroma_qp_offset=-4 / threads=12 / lookahead_threads=2 / sliced_threads=0 / nr=0 / decimate=1 / interlaced=0 / bluray_compat=0 / constrained_intra=0 / fgo=0 / bframes=8 / b_pyramid=2 / b_adapt=2 / b_bias=0 / direct=3 / weightb=1 / open_gop=0 / weightp=2 / keyint=250 / keyint_min=23 / scenecut=40 / intra_refresh=0 / rc_lookahead=30 / rc=2pass / mbtree=0 / bitrate=14000 / ratetol=1.0 / qcomp=0.70 / qpmin=0:0:0 / qpmax=69:69:69 / qpstep=4 / cplxblur=20.0 / qblur=0.5 / vbv_maxrate=35000 / vbv_bufsize=35000 / nal_hrd=none / filler=0 / ip_ratio=1.40 / pb_ratio=1.30 / aq=3:1.00 / aq-sensitivity=10.00 / aq-factor=1.00:1.00:1.00 / aq2=0 / aq3=2:[0.50:0.50]:[0.50:0.50]:[0.50:0.50]:[0.50:0.50] / aq3-sensitivity=10.00 / aq3-factor=[1.00:1.00]:[1.00:1.00]:[1.00:1.00] / aq3-boundary=192:64:24
Language : English
Default : Yes
Forced : No

Audio #1
ID : 2
Format : DTS
Format/Info : Digital Theater Systems
Codec ID : A_DTS
Duration : 1 h 46 min
Bit rate mode : Constant
Bit rate : 768 kb/s
Channel(s) : 6 channels
Channel layout : C L R Ls Rs LFE
Sampling rate : 48.0 kHz
Frame rate : 93.750 FPS (512 SPF)
Bit depth : 24 bits
Compression mode : Lossy
Stream size : 587 MiB (4%)
Title : Dub [License]
Language : Russian
Default : Yes
Forced : Yes

Audio #2
ID : 3
Format : AC-3
Format/Info : Audio Coding 3
Commercial name : Dolby Digital
Codec ID : A_AC3
Duration : 1 h 46 min
Bit rate mode : Constant
Bit rate : 448 kb/s
Channel(s) : 6 channels
Channel layout : L R C LFE Ls Rs
Sampling rate : 48.0 kHz
Frame rate : 31.250 FPS (1536 SPF)
Bit depth : 16 bits
Compression mode : Lossy
Stream size : 343 MiB (2%)
Title : Dub [License]
Language : Russian
Service kind : Complete Main
Default : No
Forced : No

Audio #3
ID : 4
Format : DTS ES
Format/Info : Digital Theater Systems
Commercial name : DTS-ES Matrix
Codec ID : A_DTS
Duration : 1 h 46 min
Bit rate mode : Constant
Bit rate : 1 509 kb/s
Channel(s) : 6 channels
Channel(s)_Original : 7 channels
Channel layout : C L R Ls Rs Cb LFE
Sampling rate : 48.0 kHz
Frame rate : 93.750 FPS (512 SPF)
Bit depth : 24 bits
Compression mode : Lossy
Stream size : 1.13 GiB (8%)
Title : AVO [kyberpunk]
Language : Russian
Default : No
Forced : No

Audio #4
ID : 5
Format : AC-3
Format/Info : Audio Coding 3
Commercial name : Dolby Digital
Codec ID : A_AC3
Duration : 1 h 46 min
Bit rate mode : Constant
Bit rate : 640 kb/s
Channel(s) : 6 channels
Channel layout : L R C LFE Ls Rs
Sampling rate : 48.0 kHz
Frame rate : 31.250 FPS (1536 SPF)
Bit depth : 16 bits
Compression mode : Lossy
Stream size : 490 MiB (3%)
Title : AVO [kyberpunk]
Language : Russian
Service kind : Complete Main
Default : No
Forced : No

Audio #5
ID : 6
Format : AC-3
Format/Info : Audio Coding 3
Commercial name : Dolby Digital
Codec ID : A_AC3
Duration : 1 h 46 min
Bit rate mode : Constant
Bit rate : 192 kb/s
Channel(s) : 2 channels
Channel layout : L R
Sampling rate : 48.0 kHz
Frame rate : 31.250 FPS (1536 SPF)
Bit depth : 16 bits
Compression mode : Lossy
Stream size : 147 MiB (1%)
Title : MVO [HDRezka Studio]
Language : Russian
Service kind : Complete Main
Default : No
Forced : No

Audio #6
ID : 7
Format : AC-3
Format/Info : Audio Coding 3
Commercial name : Dolby Digital
Codec ID : A_AC3
Duration : 1 h 46 min
Bit rate mode : Constant
Bit rate : 448 kb/s
Channel(s) : 6 channels
Channel layout : L R C LFE Ls Rs
Sampling rate : 48.0 kHz
Frame rate : 31.250 FPS (1536 SPF)
Bit depth : 16 bits
Compression mode : Lossy
Stream size : 343 MiB (2%)
Title : License
Language : Ukrainian
Service kind : Complete Main
Default : No
Forced : No

Audio #7
ID : 8
Format : DTS ES
Format/Info : Digital Theater Systems
Commercial name : DTS-ES Matrix
Codec ID : A_DTS
Duration : 1 h 46 min
Bit rate mode : Constant
Bit rate : 1 509 kb/s
Channel(s) : 6 channels
Channel(s)_Original : 7 channels
Channel layout : C L R Ls Rs Cb LFE
Sampling rate : 48.0 kHz
Frame rate : 93.750 FPS (512 SPF)
Bit depth : 24 bits
Compression mode : Lossy
Stream size : 1.13 GiB (8%)
Title : Original
Language : English
Default : No
Forced : No

Text #1
ID : 9
Format : UTF-8
Codec ID : S_TEXT/UTF8
Codec ID/Info : UTF-8 Plain Text
Duration : 1 h 45 min
Bit rate : 1 b/s
Count of elements : 22
Stream size : 1.02 KiB (0%)
Title : Forced
Language : Russian
Default : Yes
Forced : Yes

Text #2
ID : 10
Format : UTF-8
Codec ID : S_TEXT/UTF8
Codec ID/Info : UTF-8 Plain Text
Duration : 1 h 45 min
Bit rate : 70 b/s
Count of elements : 1270
Stream size : 54.4 KiB (0%)
Title : Full
Language : Russian
Default : No
Forced : No

Text #3
ID : 11
Format : UTF-8
Codec ID : S_TEXT/UTF8
Codec ID/Info : UTF-8 Plain Text
Duration : 1 h 38 min
Bit rate : 49 b/s
Count of elements : 1366
Stream size : 35.6 KiB (0%)
Language : English
Default : No
Forced : No

Menu
00:00:00.000 : :??01 ??
00:02:00.704 : :??02 ??
00:08:32.929 : :??03 ??
00:09:45.335 : :??04 ??
00:13:47.660 : :??05 ??
00:16:09.177 : :??06 ??
00:17:36.430 : :??07 ??
00:20:21.470 : :??08 ??
00:25:01.959 : :??09 ??
00:27:36.280 : :??10 ??
00:31:10.077 : :??11 ??
00:36:23.348 : :??12 ??
00:38:00.653 : :??13 ??
00:39:42.547 : :??14 ??
00:44:34.714 : :??15 ??
00:49:15.911 : :??16 ??
00:53:18.612 : :??17 ??
00:58:34.511 : :??18 ??
00:59:58.512 : :??19 ??
01:03:16.292 : :??20 ??
01:06:36.826 : :??21 ??
01:09:51.020 : :??22 ??
01:12:26.634 : :??23 ??
01:15:55.634 : :??24 ??
01:18:52.686 : :??25 ??
01:21:24.630 : :??26 ??
01:23:08.942 : :??27 ??
01:27:08.807 : :??28 ??
01:30:55.241 : :??29 ??
01:32:14.821 : :??30 ??
01:35:08.411 : :??31 ??
01:40:00.203 : :??32 ??
Источник http://BlaTor.org

Трекер:  [ 25-Дек-2018 01:30 ]

  

Скачать .torrent

Размер .torrent файла 18 KB


Размер: 14.43 GB
Хэш (hash) релиза: 41dc800ffd9ec99f332d0ea2c2089e3ef6c784dc
Подписка на обновления:

Торренты, похожие на Хищник The Predator скачать торрент

Форум Название Автор Размер S L Добавлен
Зарубежные фильмы 2016-2018 (Новинки зарубежного кино) ·%· Хищник / The Predator (2018) DVD9 Galfimbul 83856384007.81 GB 0 0 1553010010

18:40

19-Мар-19

Зарубежные фильмы 2016-2018 (Новинки зарубежного кино) ·%· Хищник / The Predator (2018) BDRip | Сербин Galfimbul 15721226241.46 GB 2 0 1551607833

13:10

3-Мар-19

Зарубежные фильмы 2016-2018 (Новинки зарубежного кино) ·%· Хищник / The Predator (2018) WEB-DLRip | Локализованная версия | D Galfimbul 15715143681.46 GB 0 0 1546255809

14:30

31-Дек-18

Зарубежные фильмы 2016-2018 (Новинки зарубежного кино) ·%· Хищник / The Predator (2018) HDRip от Scarabey | Лицензия Galfimbul 15595888641.45 GB 2 0 1545934209

21:10

27-Дек-18

Зарубежные фильмы 2016-2018 (Новинки зарубежного кино) ·%· Хищник / The Predator (2018) UHDRip 2160p | 4K | SDR | D, A Galfimbul 2742969047125.55 GB 0 0 1545905418

13:10

27-Дек-18

Зарубежные фильмы 2016-2018 (Новинки зарубежного кино) ·%· Хищник / The Predator (2018) UHDRip-HEVC 1080p | SDR | D, A Galfimbul 1154563903710.75 GB 0 0 1545905409

13:10

27-Дек-18

Зарубежные фильмы 2016-2018 (Новинки зарубежного кино) ·%· Хищник / The Predator (2018) BDRip 1080p | D, A | Лицензия Galfimbul 1629548273215.18 GB 0 0 1545834021

17:20

26-Дек-18

Зарубежные фильмы 2016-2018 (Новинки зарубежного кино) ·%· Хищник / The Predator (2018) BDRip 720p от селезень | D, P, A | Лицензия Galfimbul 97463904539.08 GB 0 0 1545720029

09:40

25-Дек-18

Зарубежные фильмы 2016-2018 (Новинки зарубежного кино) ·%· Хищник / The Predator (2018) BDRip-AVC от OlLanDGroup | D, P | Лицензия Galfimbul 27778638112.59 GB 0 0 1545717057

08:50

25-Дек-18

Зарубежные фильмы 2016-2018 (Новинки зарубежного кино) ·%· Хищник / The Predator (2018) BDRip от MegaPeer | D, A | Лицензия Galfimbul 23445436212.18 GB 0 0 1545717040

08:50

25-Дек-18

Зарубежные фильмы 2016-2018 (Новинки зарубежного кино) ·%· Хищник / The Predator (2018) BDRip-AVC от OlLanDGroup | Лицензия Galfimbul 779221947743 MB 0 0 1545704487

05:21

25-Дек-18

Зарубежные фильмы 2016-2018 (Новинки зарубежного кино) ·%· Хищник / The Predator (2018) BDRip-AVC от HELLYWOOD | Лицензия Galfimbul 15711520021.46 GB 0 0 1545682955

23:22

24-Дек-18

Зарубежные фильмы 2016-2018 (Новинки зарубежного кино) ·%· Хищник / The Predator (2018) BDRip-HEVC 1080p от M@kSIMus | Лицензия Galfimbul 69152295296.44 GB 0 0 1545660651

17:10

24-Дек-18

Зарубежные фильмы 2016-2018 (Новинки зарубежного кино) ·%· Хищник / The Predator (2018) BDRip-AVC от HELLYWOOD | Лицензия Galfimbul 23411616532.18 GB 2 0 1545653455

15:10

24-Дек-18

Зарубежные фильмы 2016-2018 (Новинки зарубежного кино) ·%· Хищник / The Predator (2018) BDRemux 1080p от селезень | D, P, A | Лицензия Galfimbul 3102203246828.89 GB 0 0 1545648631

13:50

24-Дек-18

Зарубежные фильмы 2016-2018 (Новинки зарубежного кино) ·%· Хищник / The Predator (2018) BDRemux 1080p | D, A Galfimbul 3020063352728.13 GB 0 0 1544968813

17:00

16-Дек-18

Зарубежные фильмы 2016-2018 (Новинки зарубежного кино) ·%· Хищник / The Predator (2018) BDRip-AVC от OlLanDGroup | iTunes Galfimbul 779220820743 MB 0 0 1544595018

09:10

12-Дек-18

Зарубежные фильмы 2016-2018 (Новинки зарубежного кино) ·%· Хищник / The Predator (2018) BDRip 1080p от qqss44 & MegaPeer | iTunes Galfimbul 81179160897.56 GB 0 0 1544578807

04:40

12-Дек-18

Зарубежные фильмы 2016-2018 (Новинки зарубежного кино) ·%· Хищник / The Predator (2018) BDRip от ExKinoRay | iTunes Galfimbul 22938705922.14 GB 0 0 1544560211

23:30

11-Дек-18

Еще никто не оставлял запись к записи скачать торрент Хищник The Predator . Будь первым!

!Обратная связь