Скачать через торрент Рио 2 Rio 2 Фильм бесплатно в хорошем качестве torrent

Скачивайте на UnionPeer.org фильмы через торрент без регистрации. Новинки кино в хорошем качестве через торрент. На UnionPeer.org можно скачать через торрент фильмы 2014 и 2015 годов. Самые новые фильмы.

Скачать торрент Рио 2 Rio 2 бесплатно через .torrent фильм мультфильм сериал

Статистика раздачи
Размер:  4.93 GB   |    Зарегистрирован:  2 месяца 21 день   |    .torrent скачан:  48 раз   |   
Раздают:  1  
   
загрузка...
 
Автор Сообщение

Galfimbul

avatar Galfimbul


Год выхода: 2014
Страна: США
Жанр: Мультфильм, мюзикл, комедия, приключения, семейный
Продолжительность: 01:41:11
Перевод: Дублированный (Лицензия)

Режиссер: Карлос Салдана

Описание: Голубчик, Жемчужинка и их трое детей живут счастливой жизнью в волшебном городе Рио-де-Жанейро. Когда Жемчужинка решает, что их детям нужно научиться жить как настоящим птицам, она настаивает на авантюрной поездке в дебри реки Амазонки. Там, пытаясь вписаться в новое окружение, Голубчик начинает беспокоиться, что может потерять Жемчужинку и детей, идущих на зов дикой природы.

Качество: BDRip 1080p
Видео: HEVC/H.265, 1920x800, ~5692 Kbps
Аудио 1: AC3, 6 ch, 640 Kbps - Дублированный
Аудио 2: AC3, 6 ch, 640 Kbps - Английский
Субтитры: Нет
Автор рипа: [b] Mr. Fox
Общее
Уникальный идентификатор : 108183472711987867328527992658538836381 (0x516361036A9FE0D2295F81F60B38B19D)
Полное имя : F:РАЗДАЧИRio 2. 2014. 1080p. HEVC. 10 bit.mkv
Формат : Matroska
Версия формата : Version 4 / Version 2
Размер файла : 4,93 Гбайт
Продолжительность : 1 ч. 41 м.
Общий поток : 6974 Кбит/сек
Название фильма : Рип от Mr. Fox, специально для сайта Kino-mix
Дата кодирования : UTC 2018-12-30 08:32:31
Программа кодирования : mkvmerge v28.2.0 ('The Awakening') 64-bit
Библиотека кодирования : libebml v1.3.6 + libmatroska v1.4.9
Обложка : Yes
Attachments : cover1 (2).jpg

Видео
Идентификатор : 1
Формат : HEVC
Формат/Информация : High Efficiency Video Coding
Профиль формата : Main 10@L5.1@High
Идентификатор кодека : V_MPEGH/ISO/HEVC
Продолжительность : 1 ч. 41 м.
Битрейт : 5692 Кбит/сек
Ширина : 1920 пикселей
Высота : 800 пикселей
Соотношение сторон : 2,40:1
Режим частоты кадров : Постоянный
Частота кадров : 23,976 (23976/1000) кадра/сек
Частота кадров в оригинале : 23,976 (24000/1001) кадра/сек
Цветовое пространство : YUV
Субдискретизация насыщенности : 4:2:0
Битовая глубина : 10 бит
Бит/(Пиксели*Кадры) : 0.155
Размер потока : 4,02 Гбайт (82%)
Заголовок : Рип от Mr. Fox, специально для сайта Kino-mix
Библиотека кодирования : x265 2.8+19-bcdc610cf5f0:[Windows][GCC 7.3.0][64 bit] 10bit
Настройки программы : cpuid=1111039 / frame-threads=13 / numa-pools=12 / wpp / no-pmode / no-pme / no-psnr / no-ssim / log-level=3 / input-csp=1 / input-res=1920x800 / interlace=0 / total-frames=0 / level-idc=51 / high-tier=1 / uhd-bd=0 / ref=6 / allow-non-conformance / no-repeat-headers / annexb / no-aud / no-hrd / info / hash=0 / no-temporal-layers / open-gop / min-keyint=24 / keyint=240 / gop-lookahead=0 / bframes=10 / b-adapt=2 / b-pyramid / bframe-bias=0 / rc-lookahead=60 / lookahead-slices=5 / scenecut=40 / radl=0 / no-intra-refresh / ctu=64 / min-cu-size=8 / no-rect / no-amp / max-tu-size=32 / tu-inter-depth=3 / tu-intra-depth=3 / limit-tu=0 / rdoq-level=0 / dynamic-rd=0.00 / no-ssim-rd / signhide / no-tskip / nr-intra=0 / nr-inter=0 / no-constrained-intra / strong-intra-smoothing / max-merge=3 / limit-refs=3 / no-limit-modes / me=3 / subme=7 / merange=64 / temporal-mvp / weightp / weightb / no-analyze-src-pics / deblock=-3:-3 / no-sao / no-sao-non-deblock / rd=4 / no-early-skip / rskip / no-fast-intra / no-tskip-fast / no-cu-lossless / no-b-intra / no-splitrd-skip / rdpenalty=0 / psy-rd=2.00 / psy-rdoq=0.00 / no-rd-refine / no-lossless / cbqpoffs=0 / crqpoffs=0 / rc=crf / crf=18.0 / qcomp=0.60 / qpstep=1 / stats-write=0 / stats-read=0 / vbv-maxrate=160000 / vbv-bufsize=160000 / vbv-init=0.9 / crf-max=30.0 / crf-min=0.0 / ipratio=1.40 / pbratio=1.30 / aq-mode=3 / aq-strength=0.80 / cutree / zone-count=0 / no-strict-cbr / qg-size=32 / no-rc-grain / qpmax=69 / qpmin=0 / no-const-vbv / sar=1 / overscan=0 / videoformat=5 / range=0 / colorprim=2 / transfer=2 / colormatrix=2 / chromaloc=0 / display-window=0 / max-cll=0,0 / min-luma=0 / max-luma=1023 / log2-max-poc-lsb=8 / vui-timing-info / vui-hrd-info / slices=1 / no-opt-qp-pps / no-opt-ref-list-length-pps / no-multi-pass-opt-rps / scenecut-bias=0.05 / no-opt-cu-delta-qp / no-aq-motion / no-hdr / no-hdr-opt / no-dhdr10-opt / no-idr-recovery-sei / analysis-reuse-level=5 / scale-factor=0 / refine-intra=0 / refine-inter=0 / refine-mv=0 / no-limit-sao / ctu-info=0 / no-lowpass-dct / refine-mv-type=0 / copy-pic=1 / max-ausize-factor=1.0 / no-dynamic-refine / no-single-sei
Default : Да
Forced : Нет

Аудио #1
Идентификатор : 2
Формат : AC-3
Формат/Информация : Audio Coding 3
Идентификатор кодека : A_AC3
Продолжительность : 1 ч. 41 м.
Вид битрейта : Постоянный
Битрейт : 640 Кбит/сек
Каналы : 6 каналов
Расположение каналов : Front: L C R, Side: L R, LFE
Частота : 48,0 КГц
Частота кадров : 31,250 кадров/сек (1536 SPF)
Битовая глубина : 16 бит
Метод сжатия : С потерями
Размер потока : 463 Мбайт (9%)
Заголовок : DD Audio 5.1 / 48 kHz / 640 kbps
Язык : Russian
ServiceKind/ : Complete Main
Default : Да
Forced : Нет

Аудио #2
Идентификатор : 3
Формат : AC-3
Формат/Информация : Audio Coding 3
Идентификатор кодека : A_AC3
Продолжительность : 1 ч. 41 м.
Вид битрейта : Постоянный
Битрейт : 640 Кбит/сек
Каналы : 6 каналов
Расположение каналов : Front: L C R, Side: L R, LFE
Частота : 48,0 КГц
Частота кадров : 31,250 кадров/сек (1536 SPF)
Битовая глубина : 16 бит
Метод сжатия : С потерями
Размер потока : 463 Мбайт (9%)
Заголовок : DD Audio 5.1 / 48 kHz / 640 kbps
Язык : English
ServiceKind/ : Complete Main
Default : Нет
Forced : Нет

Меню
00:00:00.000 : :Глава 01
00:10:00.000 : :Глава 02
00:20:00.000 : :Глава 03
00:30:00.000 : :Глава 04
00:40:00.000 : :Глава 05
00:50:00.000 : :Глава 06
01:00:00.000 : :Глава 07
01:10:00.000 : :Глава 08
01:20:00.000 : :Глава 09
01:30:00.000 : :Глава 10
01:40:00.000 : :Глава 11
[/b]
Источник http://BlaTor.org

Трекер:  [ 30-Дек-2018 22:50 ]

  

Скачать .torrent

Размер .torrent файла 25 KB


Размер: 4.93 GB
Хэш (hash) релиза: 5f16de808708143fd14b0ede4bb4c18c07ddacd3
Подписка на обновления:

Торренты, похожие на Рио 2 Rio 2 скачать торрент

Форум Название Автор Размер S L Добавлен
Мультфильмы до 2016 ·· Рио 2 / Rio 2 (Карлос Салдана / Carlos Saldanha) [2014, США, мультфильм, комедия, , приключения, Blu-ray disc 1080p] [EUR] Dub + Sub Rus, Eng + Original Eng Galfimbul 4619484234243.02 GB 0 0 1493562532

17:28

30-Апр-17

Мультфильмы до 2016 ·· Рио 2 / Rio 2 (Карлос Салдана / Carlos Saldanha) [2014 г., мультфильм, мюзикл, комедия, приключения, семейный, BDRemux 1080p] (Локализованный видеоряд) Dub + Ukr + Eng + Subs (Rus, Ukr, Eng) Galfimbul 2263035474721.08 GB 0 0 1447318824

12:00

12-Ноя-15

Мультфильмы до 2016 ·· Рио 2 / Rio 2 (Карлос Салдана / Carlos Saldanha) [2014 г., мультфильм, мюзикл, комедия, приключения, семейный, BDRip 1080p] (Локализованный видеоряд) Dub + Ukr + Eng + Subs (Rus, Ukr, Eng) Galfimbul 93520349968.71 GB 0 0 1447318818

12:00

12-Ноя-15

Мультфильмы до 2016 ·· Рио 2 / Rio 2 (Карлос Салдана / Carlos Saldanha) [2014 г., мультфильм, мюзикл, комедия, приключения, семейный, BDRip-AVC] (Локализованный видеоряд) Dub + Ukr + Eng + Subs (Rus, Ukr, Eng) Galfimbul 17458825501.63 GB 0 0 1447318736

11:58

12-Ноя-15

Мультфильмы до 2016 ·· Рио 2 / Rio 2 (Карлос Салдана / Carlos Saldanha) [2014 г., мультфильм, мюзикл, комедия, приключения, семейный, BDRip-AVC] (Локализованный видеоряд) Dub + Ukr + Eng + Subs (Rus, Ukr, Eng) Galfimbul 31598619942.94 GB 0 0 1447318731

11:58

12-Ноя-15

Мультфильмы до 2016 ·· Рио 2 / Rio 2 (Карлос Салдана / Carlos Saldanha) [2014, США, Мультфильм, комедия, приключения, семейный, HDRip] Dub + Rus Sub Galfimbul 15693434881.46 GB 0 0 1446768998

03:16

6-Ноя-15

Мультфильмы до 2016 ·· Рио 2 / Rio 2 (Карлос Салдана / Carlos Saldanha) [2014 г., США, мультфильм, комедия, приключения, семейный, BDRip-AVC] Dub + Ukr + Original Eng + Sub Rus, Ukr, Eng Galfimbul 31466181962.93 GB 0 0 1404919838

18:30

9-Июл-14

Мультфильмы до 2016 ·· Рио 2 / Rio 2 (Карлос Салдана) [2014, Мультфильм, комедия, приключения, семейный, BDRemux 1080p] Galfimbul 2311654663021.53 GB 0 0 1404243108

22:31

1-Июл-14

Мультфильмы до 2016 ·· Рио 2 / Rio 2 (Карлос Салдана) [2014, мультфильм, комедия, приключения, семейный, BDRip-AVC] Galfimbul 15632640991.46 GB 0 0 1404158554

23:02

30-Июн-14

Мультфильмы до 2016 ·· Рио 2 / Rio 2 (Карлос Салдана) [2014, Мультфильм, комедия, приключения, семейный, HDRip-AVC] [Чистый звук] Galfimbul 22183836672.07 GB 0 0 1403974940

20:02

28-Июн-14

Мультфильмы до 2016 ·· Рио 2 / Rio 2 (Карлос Салдана) [2014, Мультфильм, комедия, приключения, семейный, BDRip 1080p] Galfimbul 99166892009.24 GB 0 0 1403973153

19:32

28-Июн-14

Мультфильмы до 2016 ·· Рио 2 / Rio 2 (Карлос Салдана) [2014, Мультфильм, комедия, приключения, семейный, BDRip-AVC] Galfimbul 30026144502.8 GB 0 0 1403964240

17:04

28-Июн-14

Мультфильмы до 2016 ·· Рио 2 / Rio 2 (Карлос Салдана) [2014, Мультфильм, комедия, приключения, семейный, BDRip] Galfimbul 22001803202.05 GB 0 0 1403958468

15:27

28-Июн-14

Мультфильмы до 2016 ·· Рио 2 / Rio 2 (Карлос Салдана) [2014, Мультфильм, комедия, приключения, семейный, BDRip 720p] Galfimbul 63774274985.94 GB 0 0 1403782146

14:29

26-Июн-14

Мультфильмы до 2016 ·· Рио 2 / Rio 2 (Карлос Салдана) [2014, Мультфильм, комедия, приключения, семейный, HDRip] Galfimbul 15164395521.41 GB 0 0 1396519349

13:02

3-Апр-14

Мультфильмы до 2016 ·· Рио 2 / Rio 2 (Карлос Салдана) [2014, Мультфильм, комедия, приключения, семейный, BDRip] Galfimbul 782013787746 MB 0 0 1396519288

13:01

3-Апр-14

Трейлеры и дополнительные материалы ·· Рио 2 / Rio 2 (Карлос Салдана) [2014, Мультфильм, DCPrip] [3D-Video] [Трейлер] Galfimbul 620007515591 MB 0 0 1393586439

14:20

28-Фев-14

Трейлеры и дополнительные материалы ·· Рио 2 / Rio 2 (Карлос Салдана) [2014, Мультфильм, DCPrip] [2K] [Трейлер] Galfimbul 341412428326 MB 0 0 1393586411

14:20

28-Фев-14

Трейлеры и дополнительные материалы ·· Рио 2 / Rio 2 (Карлос Салдана) [2014, мультфильм, комедия, приключения, семейный, HDRip-720p] [Трейлер] Galfimbul 5182059449 MB 0 0 1383912361

15:06

8-Ноя-13

Еще никто не оставлял запись к записи скачать торрент Рио 2 Rio 2 . Будь первым!

!Обратная связь