Скачать через торрент Белоснежка и Охотник 2 The Huntsman: Winter's War Фильм бесплатно в хорошем качестве torrent

Скачивайте на UnionPeer.org фильмы через торрент без регистрации. Новинки кино в хорошем качестве через торрент. На UnionPeer.org можно скачать через торрент фильмы 2014 и 2015 годов. Самые новые фильмы.

Скачать торрент Белоснежка и Охотник 2 The Huntsman: Winter's War бесплатно через .torrent фильм мультфильм сериал

Статистика раздачи
Размер:  6.07 GB   |    Зарегистрирован:  5 лет 1 месяц   |    .torrent скачан:  63 раза   |   
Раздают:  1  
 

Скачать Белоснежка и Охотник 2 / The Huntsman: Winter's War (2016) BDRip-HEVC 1080p | Лицензия | Расширенная версия через torrent

 
 
Автор Сообщение

Galfimbul

avatar Galfimbul


Год выхода: 2016
Страна: США
Жанр: Фэнтези, боевик, драма, приключения
Продолжительность: 02:00:10
Перевод: Дублированный (Лицензия)

Режиссер: Седрик Николя-Троян
В главных ролях: Крис Хемсворт, Шарлиз Терон, Джессика Честейн, Эмили Блант, Ник Фрост, Роб Брайдон, Шеридан Смит, Александра Роуч, Сопе Дирису, Сэм Хэзелдайн

Описание: Когда любовь уходит, сердце прекрасной девы обращается в лед. И даже сотни королевств не смогут сдержать поступь ее несметного воинства. Лишь Охотник не ведает страха. Сквозь проклятый лес он идет навстречу своей судьбе.

Качество: BDRip 1080p
Видео: HEVC/H.265, 1920x804, ~5824 Kbps
Аудио 1: DTS, 6 ch, 768 Kbps - Дублированный
Аудио 2: AC3, 6 ch, 640 Kbps - Английский
Субтитры: Русские, английские
Общее
Уникальный идентификатор : 177840853104424809620528296511377934970 (0x85CAE705D7FF209E8E7576FEDE928A7A)
Полное имя : F:РАЗДАЧИБелоснежка и Охотник 2 (1080p) Extended Edition HEVC.mkv
Формат : Matroska
Версия формата : Version 4 / Version 2
Размер файла : 6,07 Гбайт
Продолжительность : 2 ч. 0 м.
Общий поток : 7235 Кбит/сек
Дата кодирования : UTC 2016-08-13 13:25:34
Программа кодирования : mkvmerge v9.2.0 ('Photograph') 64bit
Библиотека кодирования : libebml v1.3.3 + libmatroska v1.4.4

Видео
Идентификатор : 1
Формат : HEVC
Формат/Информация : High Efficiency Video Coding
Профиль формата : Main@L4@Main
Идентификатор кодека : V_MPEGH/ISO/HEVC
Продолжительность : 2 ч. 0 м.
Битрейт : 5824 Кбит/сек
Ширина : 1920 пикселей
Высота : 804 пикселя
Соотношение сторон : 2,40:1
Режим частоты кадров : Постоянный
Частота кадров : 23,976 (24000/1001) кадра/сек
Цветовое пространство : YUV
Субдискретизация насыщенности : 4:2:0
Битовая глубина : 8 бит
Бит/(Пиксели*Кадры) : 0.157
Размер потока : 4,89 Гбайт (80%)
Библиотека кодирования : x265 2.0+12-49a0d1176aef:[Windows][GCC 5.3.1][64 bit] 8bit
Настройки программы : wpp / ctu=64 / min-cu-size=8 / max-tu-size=32 / tu-intra-depth=1 / tu-inter-depth=1 / me=2 / subme=5 / merange=57 / no-rect / no-amp / max-merge=5 / temporal-mvp / no-early-skip / rskip / rdpenalty=0 / no-tskip / no-tskip-fast / strong-intra-smoothing / no-lossless / no-cu-lossless / no-constrained-intra / no-fast-intra / open-gop / no-temporal-layers / interlace=0 / keyint=250 / min-keyint=23 / scenecut=40 / rc-lookahead=60 / lookahead-slices=0 / bframes=8 / bframe-bias=0 / b-adapt=2 / ref=5 / limit-refs=3 / no-limit-modes / weightp / weightb / aq-mode=1 / qg-size=64 / aq-strength=1.00 / cbqpoffs=0 / crqpoffs=0 / rd=3 / psy-rd=1.00 / rdoq-level=2 / psy-rdoq=1.00 / no-rd-refine / signhide / deblock=-3:-3 / no-sao / no-sao-non-deblock / b-pyramid / no-cutree / no-intra-refresh / rc=2 / pass / bitrate=5820 / qcomp=0.60 / qpmin=0 / qpmax=69 / qpstep=4 / cplxblur=20.0 / qblur=0.5 / ipratio=1.40 / pbratio=1.30
Default : Да
Forced : Нет

Аудио #1
Идентификатор : 2
Формат : DTS
Формат/Информация : Digital Theater Systems
Идентификатор кодека : A_DTS
Продолжительность : 2 ч. 0 м.
Вид битрейта : Постоянный
Битрейт : 768 Кбит/сек
Каналы : 6 каналов
Расположение каналов : Front: L C R, Side: L R, LFE
Частота : 48,0 КГц
Частота кадров : 93,750 кадра/сек (512 SPF)
Битовая глубина : 24 бит
Метод сжатия : С потерями
Размер потока : 660 Мбайт (11%)
Заголовок : Дублированный
Язык : Russian
Default : Да
Forced : Нет

Аудио #2
Идентификатор : 3
Формат : AC-3
Формат/Информация : Audio Coding 3
Идентификатор кодека : A_AC3
Продолжительность : 2 ч. 0 м.
Вид битрейта : Постоянный
Битрейт : 640 Кбит/сек
Каналы : 6 каналов
Расположение каналов : Front: L C R, Side: L R, LFE
Частота : 48,0 КГц
Частота кадров : 31,250 кадров/сек (1536 SPF)
Битовая глубина : 16 бит
Метод сжатия : С потерями
Размер потока : 550 Мбайт (9%)
Язык : English
ServiceKind/ : Complete Main
Default : Нет
Forced : Нет

Текст #1
Идентификатор : 4
Формат : UTF-8
Идентификатор кодека : S_TEXT/UTF8
Идентификатор кодека/Информация : UTF-8 Plain Text
Продолжительность : 1 ч. 59 м.
Битрейт : 57 бит/сек
ElementCount : 1100
Размер потока : 50,0 Кбайт (0%)
Заголовок : Full
Язык : Russian
Default : Нет
Forced : Нет

Текст #2
Идентификатор : 5
Формат : UTF-8
Идентификатор кодека : S_TEXT/UTF8
Идентификатор кодека/Информация : UTF-8 Plain Text
Продолжительность : 1 ч. 50 м.
Битрейт : 36 бит/сек
ElementCount : 1139
Размер потока : 29,1 Кбайт (0%)
Заголовок : Full
Язык : English
Default : Нет
Forced : Нет

Текст #3
Идентификатор : 6
Формат : UTF-8
Идентификатор кодека : S_TEXT/UTF8
Идентификатор кодека/Информация : UTF-8 Plain Text
Продолжительность : 1 ч. 49 м.
Битрейт : 41 бит/сек
ElementCount : 1323
Размер потока : 33,0 Кбайт (0%)
Заголовок : SDH
Язык : English
Default : Нет
Forced : Нет

Меню
00:00:00.000 : en:00:00:00.000
00:06:26.428 : en:00:06:26.428
00:09:26.858 : en:00:09:26.858
00:15:03.194 : en:00:15:03.194
00:21:33.501 : en:00:21:33.501
00:30:17.858 : en:00:30:17.858
00:36:08.166 : en:00:36:08.166
00:40:55.661 : en:00:40:55.661
00:46:56.439 : en:00:46:56.439
00:52:05.748 : en:00:52:05.748
00:59:35.530 : en:00:59:35.530
01:04:23.943 : en:01:04:23.943
01:11:16.689 : en:01:11:16.689
01:15:19.223 : en:01:15:19.223
01:22:42.833 : en:01:22:42.833
01:28:15.206 : en:01:28:15.206
01:33:58.007 : en:01:33:58.007
01:39:21.956 : en:01:39:21.956
01:48:13.904 : en:01:48:13.904
01:50:19.571 : en:01:50:19.571

Источник http://BlaTor.org

Внимание! AdBlock блокирует показ скриншотов, все вопросы к разработчикам )))
Трекер:  [ 05-Янв-2019 12:50 ]

  

Скачать .torrent

Размер .torrent файла 31 KB


Размер: 6.07 GB
Хэш (hash) релиза: e46852dca154182ffbd21d07adcd89f957ae80fb
Подписка на обновления:

Торренты, похожие на Белоснежка и Охотник 2 The Huntsman: Winter's War скачать торрент

Форум Название Автор Размер S L Добавлен
Зарубежные фильмы 2016-2019 (Новинки зарубежного кино) ·%· Белоснежка и Охотник 2 / The Huntsman Winter's War 2 (2016) BDRip-AVC от ExKinoRay | Расширенная версия | Лицензия Galfimbul 28455668352.65 GB 0 0 1577541127

16:52

28-Дек-19

Зарубежные фильмы 2016-2019 (Новинки зарубежного кино) ·· Белоснежка и Охотник 2 / The Huntsman Winter's War 2 (2016) WEBRip | КПК от ImperiaFilm | Line Galfimbul 406356756388 MB 0 0 1465562617

15:43

10-Июн-16

Зарубежные фильмы 2016-2019 (Новинки зарубежного кино) ·· Белоснежка и Охотник 2 / The Huntsman: Winter's War (2016) BDRip от HQCLUB | Extended Cut | Лицензия Galfimbul 23397068802.18 GB 0 0 1470944811

22:46

11-Авг-16

Зарубежные фильмы 2016-2019 (Новинки зарубежного кино) ·· Белоснежка и Охотник 2 / The Huntsman: Winter's War (2016) HDRip от Scarabey | Расширенная версия | Лицензия Galfimbul 15538647041.45 GB 0 0 1470588134

19:42

7-Авг-16

Зарубежные фильмы 2016-2019 (Новинки зарубежного кино) ·· Белоснежка и Охотник 2 / The Huntsman Winter's War (2016) BDRip от ExKinoRay | Расширенная версия | Лицензия Galfimbul 15702999041.46 GB 0 0 1470572016

15:13

7-Авг-16

Зарубежные фильмы 2016-2019 (Новинки зарубежного кино) ·· Белоснежка и Охотник 2 / The Huntsman Winter's War (2016) BDRemux 1080p от ExKinoRay | Расширенная версия | iTunes Galfimbul 2663796409324.81 GB 0 0 1469752776

03:39

29-Июл-16

Еще никто не оставлял запись к записи скачать торрент Белоснежка и Охотник 2 The Huntsman: Winter's War . Будь первым!

!Обратная связь