Скачать через торрент Частный сыск полковника в отставке. Фильм 2: Сувенир от Парфюмера Серии 1-4 из 4 Фильм бесплатно в хорошем качестве torrent

Скачивайте на UnionPeer.org фильмы через торрент без регистрации. Новинки кино в хорошем качестве через торрент. На UnionPeer.org можно скачать через торрент фильмы 2014 и 2015 годов. Самые новые фильмы.

Скачать торрент Частный сыск полковника в отставке. Фильм 2: Сувенир от Парфюмера Серии 1-4 из 4 бесплатно через .torrent фильм мультфильм сериал

Статистика раздачи
Размер:  4.4 GB   |    Зарегистрирован:  10 месяцев   |    .torrent скачан:  175 раз   |   
Раздают:  1  
 

Скачать Частный сыск полковника в отставке. Фильм 2: Сувенир от Парфюмера / Серии 1-4 из 4 (Денис Червяков) [2009, Детектив, WEBRip 720p] через torrent

 
загрузка...
 
Автор Сообщение

erzsebet

avatar erzsebet


Название: Частный сыск полковника в отставке. Фильм 2: Сувенир от Парфюмера
Год выхода: 2009
Производство: Арт-Юнис, Группа компаний GP / Россия
Жанр: Детектив
Продолжительность: 03:04:43 (4 x ~ 00:46:00)

Режиссер: Денис Червяков

В ролях: Анатолий Петров, Александра Флоринская, Ольга Ломоносова, Анатолий Белый, Сергей Шакуров, Екатерина Вуличенко, Дмитрий Богаченко, Виктор Раду, Анастасия Макеева, Александр Суворов

О фильме:
Новое дело, в которое втянут отставник Ходасевич, связано с его любимой падчерицей Татьяной. Преуспевающий рекламный агент, она вечно попадает в нестандартные и опасные ситуации, несмотря на неусыпную отеческую заботу бдительного полковника. Вырвавшись из-под его опеки в служебную командировку Татьяна вновь оказывается под ударом. В приморском Кострове, где она возглавляет филиал крупной рекламной компании, у Татьяны намечаются романтические отношения с обаятельным и бесшабашным креативщиком Леней Шангиным. Но в день ответственной встречи с заказчиком – местным олигархом–парфюмером Глебом Захаровичем Пастуховым - Шангин неожиданно исчезает, а у Тани начинаются серьезные неприятности: из офиса исчезают компьютеры, а саму Таню жестко допрашивают в милиции. Чувствуя, что Тане нужна помощь, Ходасевич срочно вылетает в Костров.

Доп. информация: http://www.sergey-shakurov.ru/KINO/kino_v_otstavke02.html

Фильм снят романам Анны и Сергея Литвиновых.

Качество: WEBRip 720p
Формат: MKV
Видео (1-ая и 4-ая серии): MPEG4 Video (H264) 1280x720 24fps ~3150kbps 0.143 bit/pixel
Видео (2-ая серия и 3-ая серии): MPEG4 Video (H264) 1280x720 50fps ~3150kbps 0.068 bit/pixel
Аудио: Dolby AC3 48000Hz stereo 192kbps
General
Unique ID : 254629893994045828962402848904630031769 (0xBF8FEF0AC27354D5AD3E2DDE32E8D599)
Complete name : D:\Downloads\Частный сыск полковника в отставке 2. Сувенир от парфюмера (720p)\1-ая серия.mkv
Format : Matroska
Format version : Version 2
File size : 1.11 GiB
Duration : 46 min 32 s
Overall bit rate : 3 417 kb/s
Encoded date : UTC 2015-09-17 12:26:05
Writing application : mkvmerge v5.8.0 ('No Sleep / Pillow') built on Sep 2 2012 15:37:04
Writing library : libebml v1.2.3 + libmatroska v1.3.0

Video
ID : 1
Format : AVC
Format/Info : Advanced Video Codec
Format profile : High@L4.1
Format settings, CABAC : Yes
Format settings, RefFrames : 5 frames
Codec ID : V_MPEG4/ISO/AVC
Duration : 46 min 32 s
Bit rate : 3 157 kb/s
Width : 1 280 pixels
Height : 720 pixels
Display aspect ratio : 16:9
Frame rate mode : Constant
Frame rate : 24.000 FPS
Color space : YUV
Chroma subsampling : 4:2:0
Bit depth : 8 bits
Scan type : Progressive
Bits/(Pixel*Frame) : 0.143
Stream size : 1.03 GiB (92%)
Language : Russian
Default : Yes
Forced : Yes

Audio
ID : 2
Format : AC-3
Format/Info : Audio Coding 3
Format settings, Endianness : Big
Codec ID : A_AC3
Duration : 46 min 32 s
Bit rate mode : Constant
Bit rate : 192 kb/s
Channel(s) : 2 channels
Channel positions : Front: L R
Sampling rate : 48.0 kHz
Frame rate : 31.250 FPS (1536 SPF)
Bit depth : 16 bits
Compression mode : Lossy
Stream size : 63.9 MiB (6%)
Language : Russian
Service kind : Complete Main
Default : Yes
Forced : Yes

General
Unique ID : 202142057331970566130932073732768153680 (0x981324E5483CA6EAAA11A54C9AA64050)
Complete name : D:\Downloads\Частный сыск полковника в отставке 2. Сувенир от парфюмера (720p)\2-ая серия.mkv
Format : Matroska
Format version : Version 2
File size : 1.10 GiB
Duration : 46 min 19 s
Overall bit rate : 3 408 kb/s
Encoded date : UTC 2015-09-17 21:21:14
Writing application : mkvmerge v5.8.0 ('No Sleep / Pillow') built on Sep 2 2012 15:37:04
Writing library : libebml v1.2.3 + libmatroska v1.3.0

Video
ID : 1
Format : AVC
Format/Info : Advanced Video Codec
Format profile : High@L3.2
Format settings, CABAC : Yes
Format settings, RefFrames : 4 frames
Codec ID : V_MPEG4/ISO/AVC
Duration : 46 min 19 s
Bit rate : 3 148 kb/s
Width : 1 280 pixels
Height : 720 pixels
Display aspect ratio : 16:9
Frame rate mode : Constant
Frame rate : 50.000 FPS
Color space : YUV
Chroma subsampling : 4:2:0
Bit depth : 8 bits
Scan type : Progressive
Bits/(Pixel*Frame) : 0.068
Stream size : 1.02 GiB (92%)
Language : Russian
Default : Yes
Forced : Yes

Audio
ID : 2
Format : AC-3
Format/Info : Audio Coding 3
Format settings, Endianness : Big
Codec ID : A_AC3
Duration : 46 min 19 s
Bit rate mode : Constant
Bit rate : 192 kb/s
Channel(s) : 2 channels
Channel positions : Front: L R
Sampling rate : 48.0 kHz
Frame rate : 31.250 FPS (1536 SPF)
Bit depth : 16 bits
Compression mode : Lossy
Stream size : 63.6 MiB (6%)
Language : Russian
Service kind : Complete Main
Default : Yes
Forced : Yes

General
Unique ID : 207365396838971793321700800452368979980 (0x9C011F6A972A5B518ED5A1BE02E6D80C)
Complete name : D:\Downloads\Частный сыск полковника в отставке 2. Сувенир от парфюмера (720p)\3-ая серия.mkv
Format : Matroska
Format version : Version 2
File size : 1.10 GiB
Duration : 46 min 25 s
Overall bit rate : 3 408 kb/s
Encoded date : UTC 2015-09-18 00:19:28
Writing application : mkvmerge v5.8.0 ('No Sleep / Pillow') built on Sep 2 2012 15:37:04
Writing library : libebml v1.2.3 + libmatroska v1.3.0

Video
ID : 1
Format : AVC
Format/Info : Advanced Video Codec
Format profile : High@L3.2
Format settings, CABAC : Yes
Format settings, RefFrames : 4 frames
Codec ID : V_MPEG4/ISO/AVC
Duration : 46 min 25 s
Bit rate : 3 148 kb/s
Width : 1 280 pixels
Height : 720 pixels
Display aspect ratio : 16:9
Frame rate mode : Constant
Frame rate : 50.000 FPS
Color space : YUV
Chroma subsampling : 4:2:0
Bit depth : 8 bits
Scan type : Progressive
Bits/(Pixel*Frame) : 0.068
Stream size : 1.02 GiB (92%)
Language : Russian
Default : Yes
Forced : Yes

Audio
ID : 2
Format : AC-3
Format/Info : Audio Coding 3
Format settings, Endianness : Big
Codec ID : A_AC3
Duration : 46 min 25 s
Bit rate mode : Constant
Bit rate : 192 kb/s
Channel(s) : 2 channels
Channel positions : Front: L R
Sampling rate : 48.0 kHz
Frame rate : 31.250 FPS (1536 SPF)
Bit depth : 16 bits
Compression mode : Lossy
Stream size : 63.7 MiB (6%)
Language : Russian
Service kind : Complete Main
Default : Yes
Forced : Yes

General
Unique ID : 197029259289236723367360681502463775988 (0x943A747D682C26A78F28328E29A454F4)
Complete name : D:\Downloads\Частный сыск полковника в отставке 2. Сувенир от парфюмера (720p)\4-ая серия.mkv
Format : Matroska
Format version : Version 2
File size : 1.08 GiB
Duration : 45 min 26 s
Overall bit rate : 3 409 kb/s
Encoded date : UTC 2015-09-18 00:49:20
Writing application : mkvmerge v5.8.0 ('No Sleep / Pillow') built on Sep 2 2012 15:37:04
Writing library : libebml v1.2.3 + libmatroska v1.3.0

Video
ID : 1
Format : AVC
Format/Info : Advanced Video Codec
Format profile : High@L3.1
Format settings, CABAC : Yes
Format settings, RefFrames : 5 frames
Codec ID : V_MPEG4/ISO/AVC
Duration : 45 min 26 s
Bit rate : 3 149 kb/s
Width : 1 280 pixels
Height : 720 pixels
Display aspect ratio : 16:9
Frame rate mode : Constant
Frame rate : 24.000 FPS
Color space : YUV
Chroma subsampling : 4:2:0
Bit depth : 8 bits
Scan type : Progressive
Bits/(Pixel*Frame) : 0.142
Stream size : 1 024 MiB (92%)
Language : Russian
Default : Yes
Forced : Yes

Audio
ID : 2
Format : AC-3
Format/Info : Audio Coding 3
Format settings, Endianness : Big
Codec ID : A_AC3
Duration : 45 min 26 s
Bit rate mode : Constant
Bit rate : 192 kb/s
Channel(s) : 2 channels
Channel positions : Front: L R
Sampling rate : 48.0 kHz
Frame rate : 31.250 FPS (1536 SPF)
Bit depth : 16 bits
Compression mode : Lossy
Stream size : 62.4 MiB (6%)
Language : Russian
Service kind : Complete Main
Default : Yes
Forced : Yes


Трекер:  [ 06-Янв-2019 21:32 ]

  

Скачать .torrent

Размер .torrent файла 6 KB


Размер: 4.4 GB
Хэш (hash) релиза: b0c4b72179c2565bdbec2dcca09a371e4857515e
Подписка на обновления:

Еще никто не оставлял запись к записи скачать торрент Частный сыск полковника в отставке. Фильм 2: Сувенир от Парфюмера Серии 1-4 из 4 . Будь первым!

!Обратная связь