Yuri Hamada - Ren girl * H UnionPeer.org HD

2015, 2014 UnionPeer.org

.

4.87 GB   |    :  5 13    |    .torrent :  163    |   
1   1  
   
...
 

Galfimbul

avatar Galfimbul


Yuri Hamada - Ren girl * H

: 2011
:
: Idol, Gravure, Bikini, Lingerie
: 01:09:32
: ( )

:

: JMDVB-003
: Medhiaburando

: Yuri Hamada

: BDRip
: MP4
: x264, 1440x1080, 59.940 (60000/1001) FPS, 9 844 kb/s
: AAC, 48.0 kHz, 2 channels, 160 kb/s
General
Complete name : JMDVB-003.m4v
Format : MPEG-4
Format profile : Base Media / Version 2
Codec ID : mp42 (isom/iso2/avc1/mp41)
File size : 4.87 GiB
Duration : 1 h 9 min
Overall bit rate : 10.0 Mb/s
Movie name : [JMDVB-003] Yuri Hamada 浜田由梨 - 恋少女*H ブルーレイ版
Encoded date : UTC 2018-12-31 17:00:58
Tagged date : UTC 2018-12-31 17:00:58
Writing application : HandBrake 1.2.0 2018122200

Video
ID : 1
Format : AVC
Format/Info : Advanced Video Codec
Format profile : High@L5
Format settings : CABAC / 9 Ref Frames
Format settings, CABAC : Yes
Format settings, ReFrames : 9 frames
Codec ID : avc1
Codec ID/Info : Advanced Video Coding
Duration : 1 h 9 min
Bit rate : 9 844 kb/s
Width : 1 440 pixels
Height : 1 080 pixels
Display aspect ratio : 16:9
Frame rate : 59.940 (60000/1001) FPS
Color space : YUV
Chroma subsampling : 4:2:0
Bit depth : 8 bits
Scan type : Progressive
Bits/(Pixel*Frame) : 0.106
Stream size : 4.78 GiB (98%)
Writing library : x264 core 152 r2854 e9a5903
Encoding settings : cabac=1 / ref=9 / deblock=1:-1:-1 / analyse=0x3:0x133 / me=umh / subme=10 / psy=1 / psy_rd=1,00:0,15 / mixed_ref=1 / me_range=24 / chroma_me=1 / trellis=2 / 8x8dct=1 / cqm=0 / deadzone=21,11 / fast_pskip=0 / chroma_qp_offset=-3 / threads=6 / lookahead_threads=1 / sliced_threads=0 / nr=0 / decimate=1 / interlaced=0 / bluray_compat=0 / constrained_intra=0 / bframes=9 / b_pyramid=2 / b_adapt=2 / b_bias=0 / direct=3 / weightb=1 / open_gop=0 / weightp=2 / keyint=600 / keyint_min=60 / scenecut=40 / intra_refresh=0 / rc_lookahead=60 / rc=crf / mbtree=1 / crf=19,0 / qcomp=0,60 / qpmin=0 / qpmax=69 / qpstep=4 / ip_ratio=1,40 / aq=1:1,00
Encoded date : UTC 2018-12-31 17:00:58
Tagged date : UTC 2018-12-31 17:00:58
Color range : Limited
Color primaries : BT.709
Transfer characteristics : BT.709
Matrix coefficients : BT.709
Menus : 3

Audio
ID : 2
Format : AAC
Format/Info : Advanced Audio Codec
Format profile : LC
Codec ID : mp4a-40-2
Duration : 1 h 9 min
Bit rate mode : Constant
Bit rate : 159 kb/s
Channel(s) : 2 channels
Channel positions : Front: L R
Sampling rate : 48.0 kHz
Frame rate : 46.875 FPS (1024 SPF)
Compression mode : Lossy
Stream size : 78.9 MiB (2%)
Title : Stereo
Language : English
Default : Yes
Alternate group : 1
Encoded date : UTC 2018-12-31 17:00:58
Tagged date : UTC 2018-12-31 17:00:58
Menus : 3

Menu
ID : 3
Codec ID : text
Duration : 1 h 9 min
Language : English
Encoded date : UTC 2018-12-31 17:00:58
Tagged date : UTC 2018-12-31 17:00:58
Menu For : 1,2
00:00:00.000 : Chapter 1
00:00:11.011 : Chapter 2
00:00:20.521 : Chapter 3
00:01:34.595 : Chapter 4
00:10:23.623 : Chapter 5
00:18:28.107 : Chapter 6
00:20:23.723 : Chapter 7
00:29:24.763 : Chapter 8
00:41:08.967 : Chapter 9
00:53:04.682 : Chapter 10
01:03:15.292 : Chapter 11
01:09:18.154 : Chapter 12
Bit rate mode : VBR
<div class="post-align" style="text-align: center;"> (DHT\PeX )</div>

 ·  , , FAQ-
:  [ 11--2019 00:01 ]

  

.torrent

.torrent 98 KB


: 4.87 GB
(hash) : dee60e0d36080d6327356ad6c1abde074ab519eb
··
...

Yuri Hamada - Ren girl * H . !

!