Скачать через торрент Смолфут Smallfoot Фильм бесплатно в хорошем качестве torrent

Скачивайте на UnionPeer.org фильмы через торрент без регистрации. Новинки кино в хорошем качестве через торрент. На UnionPeer.org можно скачать через торрент фильмы 2014 и 2015 годов. Самые новые фильмы.

Скачать торрент Смолфут Smallfoot бесплатно через .torrent фильм мультфильм сериал

Статистика раздачи
Размер:  745 MB   |    Зарегистрирован:  5 месяцев 6 дней   |    .torrent скачан:  38 раз   |   
Раздают:  1  
   
загрузка...
 
Автор Сообщение

Galfimbul

avatar Galfimbul


Смолфут / Smallfoot
«Not every legend is a tall tale»


Год выпуска: 2018
Страна: США
Производство: Warner Animation Group, Warner Bros. Animation, Warner Bros. Pictures
Жанр: Мультфильм, мюзикл, фэнтези, комедия, приключения, семейный

Режиссёр: Кэри Киркпатрик, Джейсон Рейсиг
Роли озвучивают: Ченнинг Татум, Джеймс Корден, Зендая Колеман, Коммон, Леброн Джеймс, Дэнни ДеВито, Джина Родригез, Яра Шахиди, Эли Генри, Джимми Татро

Перевод: Профессиональный (полное дублирование) |[Лицензия]
Субтитры: Русские (форсированные, полные), украинские (форсированные), английские (SDH, полные) (вшитые, отключаемые / UTF-8)
Реклама: Отсутствует

Описание: Молодой находчивый йети сталкивается с тем, кого, по его глубокому убеждению, не существует — человеком. Новости о «смолфуте» приносят ему славу и шанс завоевать девушку его мечты. А ещё — вызывают переполох среди простых йети, которые теперь гадают, кто же ещё обитает в большом мире за пределами их маленькой заснеженной деревушки.



Качество: BDRip-AVC | BDRemux | Smallfoot.2018.BDREMUX.1080p
Продолжительность: 01:36:18

Формат: MKV
Видео кодек: MPEG-4 AVC
Аудио кодек: AAC
Видео: 720x300 (2,40:1), 23,976 fps, x264 ~1007 kbps avg, 0.194 bit/pixel
Аудио: 48 kHz, Advanced Audio Codec, 2 (L,R) ch, ~ 72.00 kbps avg | RUS
Общее
Уникальный идентификатор : 243819833113398724011987975976965851132 (0xB76DFDE42BB623279120E4F7657747FC)
Полное имя : F:OlLanDGroupSmallfoot.2018.x264.BDRip(AVC).OlLanDGroup.mkv
Формат : Matroska
Версия формата : Version 4 / Version 2
Размер файла : 745 Мбайт
Продолжительность : 1 ч. 36 м.
Общий поток : 1082 Кбит/сек
Название фильма : Смолфут. 2018. Rip by Vovan366
Дата кодирования : UTC 2019-01-11 04:21:44
Программа кодирования : mkvmerge v29.0.0 ('Like It Or Not') 64-bit
Библиотека кодирования : libebml v1.3.6 + libmatroska v1.4.9
Обложка : Yes
Attachments : cover.png

Видео
Идентификатор : 1
Формат : AVC
Формат/Информация : Advanced Video Codec
Профиль формата : High@L4.1
Параметр CABAC формата : Да
Параметр ReFrames формата : 9 кадров
Идентификатор кодека : V_MPEG4/ISO/AVC
Продолжительность : 1 ч. 36 м.
Битрейт : 1007 Кбит/сек
Ширина : 720 пикселей
Высота : 300 пикселей
Соотношение сторон : 2,40:1
Режим частоты кадров : Постоянный
Частота кадров : 23,976 (24000/1001) кадра/сек
Цветовое пространство : YUV
Субдискретизация насыщенности : 4:2:0
Битовая глубина : 8 бит
Тип развёртки : Прогрессивная
Бит/(Пиксели*Кадры) : 0.194
Размер потока : 694 Мбайт (93%)
Заголовок : Smallfoot.2018.x264.BDRip(AVC).OlLanDGroup
Библиотека кодирования : x264 core 146 r2538 121396c
Настройки программы : cabac=1 / ref=9 / deblock=1:-3:-3 / analyse=0x3:0x133 / me=umh / subme=11 / psy=1 / psy_rd=1.00:0.00 / mixed_ref=1 / me_range=32 / chroma_me=1 / trellis=2 / 8x8dct=1 / cqm=0 / deadzone=21,11 / fast_pskip=0 / chroma_qp_offset=-2 / threads=6 / lookahead_threads=1 / sliced_threads=0 / nr=0 / decimate=0 / interlaced=0 / bluray_compat=0 / constrained_intra=0 / bframes=10 / b_pyramid=2 / b_adapt=1 / b_bias=0 / direct=3 / weightb=1 / open_gop=0 / weightp=2 / keyint=240 / keyint_min=23 / scenecut=40 / intra_refresh=0 / rc_lookahead=40 / rc=2pass / mbtree=0 / bitrate=1007 / ratetol=1.0 / qcomp=0.60 / qpmin=0 / qpmax=69 / qpstep=4 / cplxblur=20.0 / qblur=0.5 / vbv_maxrate=50000 / vbv_bufsize=52500 / nal_hrd=none / filler=0 / ip_ratio=1.40 / pb_ratio=1.30 / aq=1:1.00
Язык : English
Default : Да
Forced : Нет

Аудио
Идентификатор : 2
Формат : AAC
Формат/Информация : Advanced Audio Codec
Профиль формата : HE-AAC / LC
Идентификатор кодека : A_AAC
Продолжительность : 1 ч. 36 м.
Битрейт : 72,0 Кбит/сек
Каналы : 2 канала
Расположение каналов : Front: L R
Частота : 48,0 КГц / 24,0 КГц
Частота кадров : 23,438 кадра/сек (1024 spf)
Метод сжатия : С потерями
Задержка видео : 31 мс.
Размер потока : 49,6 Мбайт (7%)
Заголовок : DUB [License]
Язык : Russian
Default : Да
Forced : Нет

Текст #1
Идентификатор : 3
Формат : UTF-8
Идентификатор кодека : S_TEXT/UTF8
Идентификатор кодека/Информация : UTF-8 Plain Text
Продолжительность : 55 м. 58 с.
Битрейт : 1 бит/сек
Count of elements : 19
Размер потока : 729 байт (0%)
Заголовок : Forced
Язык : Russian
Default : Да
Forced : Да

Текст #2
Идентификатор : 4
Формат : UTF-8
Идентификатор кодека : S_TEXT/UTF8
Идентификатор кодека/Информация : UTF-8 Plain Text
Продолжительность : 1 ч. 35 м.
Битрейт : 108 бит/сек
Count of elements : 1500
Размер потока : 76,0 Кбайт (0%)
Заголовок : Full
Язык : Russian
Default : Нет
Forced : Нет

Текст #3
Идентификатор : 5
Формат : UTF-8
Идентификатор кодека : S_TEXT/UTF8
Идентификатор кодека/Информация : UTF-8 Plain Text
Продолжительность : 55 м. 59 с.
Битрейт : 1 бит/сек
Count of elements : 19
Размер потока : 750 байт (0%)
Заголовок : Forced
Язык : Ukrainian
Default : Нет
Forced : Нет

Текст #4
Идентификатор : 6
Формат : UTF-8
Идентификатор кодека : S_TEXT/UTF8
Идентификатор кодека/Информация : UTF-8 Plain Text
Продолжительность : 1 ч. 30 м.
Битрейт : 75 бит/сек
Count of elements : 1774
Размер потока : 50,2 Кбайт (0%)
Заголовок : Full
Язык : English
Default : Нет
Forced : Нет

Текст #5
Идентификатор : 7
Формат : UTF-8
Идентификатор кодека : S_TEXT/UTF8
Идентификатор кодека/Информация : UTF-8 Plain Text
Продолжительность : 1 ч. 30 м.
Битрейт : 88 бит/сек
Count of elements : 2098
Размер потока : 58,6 Кбайт (0%)
Заголовок : SDH
Язык : English
Default : Нет
Forced : Нет

Меню
00:00:00.000 : :Chapter 01
00:09:56.262 : :Chapter 02
00:21:36.295 : :Chapter 03
00:32:10.637 : :Chapter 04
00:38:33.602 : :Chapter 05
00:49:59.705 : :Chapter 06
00:55:37.167 : :Chapter 07
01:01:53.209 : :Chapter 08
01:12:04.278 : :Chapter 09
01:18:26.076 : :Chapter 10
01:26:16.796 : :Chapter 11
01:31:12.300 : :Chapter 12
Источник http://BlaTor.org

Трекер:  [ 11-Янв-2019 07:30 ]

  

Скачать .torrent

Размер .torrent файла 15 KB


Размер: 745 MB
Хэш (hash) релиза: 17a4ba37606aae8478270a7d7073fefbb3947a90
Подписка на обновления:

Торренты, похожие на Смолфут Smallfoot скачать торрент

Форум Название Автор Размер S L Добавлен
Мультфильмы 2016-2018 (Новинки мультфильмов) ·%· Смолфут / Smallfoot (2018) DVD9 | Лицензия Galfimbul 61929594885.77 GB 0 0 1554617418

09:10

7-Апр-19

Мультфильмы 2016-2018 (Новинки мультфильмов) ·%· Смолфут / Smallfoot (2018) BDRip 720p от KinoGadget | iPad | Лицензия Galfimbul 20672697991.93 GB 0 0 1547889629

12:20

19-Янв-19

Мультфильмы 2016-2018 (Новинки мультфильмов) ·%· Смолфут / Smallfoot (2018) BDRip-HEVC 1080p от M@kSIMus | Лицензия Galfimbul 67413699396.28 GB 0 0 1547201438

13:10

11-Янв-19

Мультфильмы 2016-2018 (Новинки мультфильмов) ·%· Смолфут / Smallfoot (2018) BDRemux 1080p от селезень | 3D-Video | Лицензия Galfimbul 3448274944032.11 GB 0 0 1547154633

00:10

11-Янв-19

Мультфильмы 2016-2018 (Новинки мультфильмов) ·%· Смолфут / Smallfoot (2018) BDRip 1080p от селезень | 3D-Video | halfOU | Лицензия Galfimbul 97431004429.07 GB 0 0 1547153426

23:50

10-Янв-19

Мультфильмы 2016-2018 (Новинки мультфильмов) ·%· Смолфут / Smallfoot (2018) BDRip 1080p от селезень | 3D-Video | HSBS | Лицензия Galfimbul 96901136459.02 GB 0 0 1547153416

23:50

10-Янв-19

Мультфильмы 2016-2018 (Новинки мультфильмов) ·%· Смолфут / Smallfoot (2018) BDRip 720p от селезень | Лицензия Galfimbul 48965788394.56 GB 0 0 1547152239

23:30

10-Янв-19

Мультфильмы 2016-2018 (Новинки мультфильмов) ·%· Смолфут / Smallfoot (2018) BDRemux 1080p от селезень | Лицензия Galfimbul 1973420888318.38 GB 0 0 1547152228

23:30

10-Янв-19

Мультфильмы 2016-2018 (Новинки мультфильмов) ·%· Смолфут / Smallfoot (2018) Blu-Ray 1080p | Лицензия Galfimbul 4698360102743.76 GB 0 0 1547151026

23:10

10-Янв-19

Мультфильмы 2016-2018 (Новинки мультфильмов) ·%· Смолфут / Smallfoot (2018) BDRip 1080p от селезень | Лицензия Galfimbul 88688858528.26 GB 0 0 1547151014

23:10

10-Янв-19

Мультфильмы 2016-2018 (Новинки мультфильмов) ·%· Смолфут / Smallfoot (2018) BDRip 720p от HELLYWOOD | iTunes Galfimbul 39339404983.66 GB 0 0 1546927219

09:00

8-Янв-19

Мультфильмы 2016-2018 (Новинки мультфильмов) ·%· Смолфут / Smallfoot (2018) HDRip от Scarabey | iTunes Galfimbul 15044874241.4 GB 0 0 1546101690

19:41

29-Дек-18

Мультфильмы 2016-2018 (Новинки мультфильмов) ·%· Смолфут / Smallfoot (2018) HDRip от Scarabey | iTunes Galfimbul 780886016745 MB 0 0 1546101680

19:41

29-Дек-18

Мультфильмы 2016-2018 (Новинки мультфильмов) ·%· Смолфут / Smallfoot (2018) BDRip-AVC от OlLanDGroup | iTunes Galfimbul 781368567745 MB 0 0 1546020639

21:10

28-Дек-18

Мультфильмы 2016-2018 (Новинки мультфильмов) ·%· Смолфут / Smallfoot (2018) BDRip 1080p от Generalfilm | iTunes Galfimbul 44681228224.16 GB 0 0 1545995427

14:10

28-Дек-18

Зарубежные фильмы 2016-2018 (Новинки зарубежного кино) ·%· Смолфут / Smallfoot (2018) BDRip-AVC от Dalemake | iTunes Galfimbul 16000479591.49 GB 0 0 1545975620

08:40

28-Дек-18

Мультфильмы 2016-2018 (Новинки мультфильмов) ·%· Смолфут / Smallfoot (2018) BDRip от ExKinoRay | iTunes Galfimbul 15249923221.42 GB 2 0 1545946811

00:40

28-Дек-18

Мультфильмы 2016-2018 (Новинки мультфильмов) ·%· Смолфут / Smallfoot (2018) BDRip-HEVC 1080p от M@kSIMus | iTunes Galfimbul 65564442646.11 GB 0 0 1545945613

00:20

28-Дек-18

Мультфильмы 2016-2018 (Новинки мультфильмов) ·%· Смолфут / Smallfoot (2018) BDRip от MegaPeer | iTunes Galfimbul 782529636746 MB 0 0 1545898241

11:10

27-Дек-18

Еще никто не оставлял запись к записи скачать торрент Смолфут Smallfoot . Будь первым!

!Обратная связь