Скачать через торрент Один поцелуй One Kiss Фильм бесплатно в хорошем качестве torrent

Скачивайте на UnionPeer.org фильмы через торрент без регистрации. Новинки кино в хорошем качестве через торрент. На UnionPeer.org можно скачать через торрент фильмы 2014 и 2015 годов. Самые новые фильмы.

Скачать торрент Один поцелуй One Kiss бесплатно через .torrent фильм мультфильм сериал

Статистика раздачи
Размер:  1.07 GB   |    Зарегистрирован:  5 месяцев 5 дней   |    .torrent скачан:  35 раз   |   
Раздают:  1  
   
загрузка...
 
Автор Сообщение

Galfimbul

avatar Galfimbul


Один поцелуй / Un Bacio (One Kiss)

Год выпуска: 2016
Жанр: Драма
Выпущено: Италия, Friuli Venezia Giulia Film Commission, Indigo Film, Lucky Red, Rai Cinema, Titanus
Режиссер: Иван Котронео
В ролях: Рима Грилло Рицбергер, Валентина Романи, Леонардо Паццаль, Томаш Трабакки, Сузи Лауде, Джиорджио Маркези, Симонетта Сольдер, Серджио Романо, Лаура Мацци

О фильме: История трёх друзей-подростков, которых не принимают их сверстники. Фильм о взрослении и стремлении к счастью, о запугивании и гомофобии. О моделях поведения, принятых в обществе, которые ограничивают людей — особенно когда они молоды и хотят быть счастливыми.


Техданные
Качество: WEBRip-AVC
Видео: MPEG-4 AVC, 1 297 Kb/s, 720x304, 25.000 FPS
Аудио: AAC, 2 ch, 192 Кбит/с
Продолжительность: 01:43:08
Перевод: Любительский двухголосый закадровый (LakeFilms)
Присутствует реклама!
General
Unique ID : 265723535113072241329924014732720860493 (0xC7E87DC72A4B0DF804655DBB1B31ED4D)
Complete name : D:One.Kiss.2016.WEBRip.SD.WEBRip.LakeFilms.mkv
Format : Matroska
Format version : Version 4
File size : 1.07 GiB
Duration : 1 h 43 min
Overall bit rate : 1 489 kb/s
Encoded date : UTC 2019-01-09 11:43:14
Writing application : mkvmerge v29.0.0 ('Like It Or Not') 64-bit
Writing library : libebml v1.3.6 + libmatroska v1.4.9

Video
ID : 1
Format : AVC
Format/Info : Advanced Video Codec
Format profile : Main@L3.1
Format settings : CABAC / 4 Ref Frames
Format settings, CABAC : Yes
Format settings, ReFrames : 4 frames
Codec ID : V_MPEG4/ISO/AVC
Duration : 1 h 43 min
Bit rate : 1 297 kb/s
Width : 720 pixels
Height : 304 pixels
Display aspect ratio : 2.35:1
Original display aspect rat : 2.35:1
Frame rate mode : Constant
Frame rate : 25.000 FPS
Standard : PAL
Color space : YUV
Chroma subsampling : 4:2:0
Bit depth : 8 bits
Scan type : Progressive
Bits/(Pixel*Frame) : 0.237
Stream size : 957 MiB (87%)
Language : English
Default : Yes
Forced : No
Color range : Limited
Color primaries : BT.601 NTSC
Transfer characteristics : BT.601
Matrix coefficients : BT.601

Audio
ID : 2
Format : AAC LC
Format/Info : Advanced Audio Codec Low Complexity
Codec ID : A_AAC-2
Duration : 1 h 43 min
Bit rate : 192 kb/s
Channel(s) : 2 channels
Channel layout : L R
Sampling rate : 48.0 kHz
Frame rate : 46.875 FPS (1024 SPF)
Compression mode : Lossy
Stream size : 140 MiB (13%)
Language : English
Default : Yes
Forced : No
Источник http://BlaTor.org

Трекер:  [ 11-Янв-2019 10:00 ]

  

Скачать .torrent

Размер .torrent файла 11 KB


Размер: 1.07 GB
Хэш (hash) релиза: 83c84128d6f3098aa079a7d1dff16cdb96e62426
Подписка на обновления:

Еще никто не оставлял запись к записи скачать торрент Один поцелуй One Kiss . Будь первым!

!Обратная связь