Скачать через торрент 12-й человек Den 12. mann Фильм бесплатно в хорошем качестве torrent

Скачивайте на UnionPeer.org фильмы через торрент без регистрации. Новинки кино в хорошем качестве через торрент. На UnionPeer.org можно скачать через торрент фильмы 2014 и 2015 годов. Самые новые фильмы.

Скачать торрент 12-й человек Den 12. mann бесплатно через .torrent фильм мультфильм сериал

Статистика раздачи
Размер:  2.27 GB   |    Зарегистрирован:  10 дней   |    .torrent скачан:  18 раз   |   
Раздают:  1  
   
загрузка...
 
Автор Сообщение

Galfimbul

avatar Galfimbul


12-й человек / Den 12. mann



Год выпуска: 2017
Страна: Норвегия
Производство: Nordisk Film Production AS, Zwart Arbeid
Жанр: Военный, драма, реальные события
Режиссёр: Харольд Цварт
В ролях: Томас Гуллестад, Джонатан Риз Майерс, Мари Блокхус, Мадс Сьёгард Петтерсен, Вегар Хуль, Хокон Т. Нильсен, Эйрик Рисхольм Велле, Даниэль Фрикстад, Эрик Дирне, Александр Цварт
Перевод: Профессиональный (многоголосый закадровый) | [HDrezka Studio]
Субтитры: Русские (полные), Английские (полные)
Реклама: Отсутствует

Описание: Основан на реальных событиях. Группа бойцов норвежского Сопротивления получает задание добраться до северо-западного норвежского побережья на судне «Браттхольм» и совершить диверсию на одной из немецких авиационных баз. Но миссия потерпела неудачу еще в море: судно было атаковано немецким кораблем и потоплено. Все захвачены в плен. Единственным человеком, которому удалось спастись, оказался Ян Баальсруд. Ему удается добраться до берега и бежать в сторону шведской границы. Преследуемый гестапо, Баальсруд ищет убежище в горах. Ему предстоит выдержать невероятные испытания и реально выжить лишь чудом.


Качество: BDRip-AVC | BDRemux | The.12th.Man.2017.bdremuX.108Op.werecut.PROD
Продолжительность: 02:15:51

Формат: MKV
Видео кодек: MPEG-4 AVC
Аудио кодек: AC3
Видео: 1024x428 (2.40:1), 24,000 fps, x264 ~1 756 kbps avg, 0.167 bit/pixel
Аудио #1: 48 kHz, AC3 Dolby Digital, 2 (L,R) ch, ~192.00 kbps avg | RUS (HDrezka Studio)
Аудио #2: 48 kHz, AC3 Dolby Digital, 3/2 (L,C,R,l,r) + LFE ch, ~448.00 kbps avg | NOR
Дата премьеры (мир): 25 декабря 2017
Дата премьеры (РФ): 24 апреля 2018
Общее
Уникальный идентификатор : 233086409777808829866387189295909061838 (0xAF5ACF436481ED59CBC5D527B7E644CE)
Полное имя : F:OlLanDGroupThe.12th.Man.2017.BDRip(AVC).OlLanDGroup.mkv
Формат : Matroska
Версия формата : Version 4 / Version 2
Размер файла : 2,27 Гбайт
Продолжительность : 2 ч. 15 м.
Общий поток : 2395 Кбит/сек
Название фильма : The 12th Man 2017 #TorpedoUK#
Дата кодирования : UTC 2019-01-11 03:47:00
Программа кодирования : mkvmerge v29.0.0 ('Like It Or Not') 64-bit
Библиотека кодирования : libebml v1.3.6 + libmatroska v1.4.9

Видео
Идентификатор : 1
Формат : AVC
Формат/Информация : Advanced Video Codec
Профиль формата : High@L4.1
Параметр CABAC формата : Да
Параметр ReFrames формата : 10 кадров
Идентификатор кодека : V_MPEG4/ISO/AVC
Продолжительность : 2 ч. 15 м.
Битрейт : 1756 Кбит/сек
Ширина : 1024 пикселя
Высота : 428 пикселей
Соотношение сторон : 2,40:1
Режим частоты кадров : Постоянный
Частота кадров : 24,000 кадра/сек
Цветовое пространство : YUV
Субдискретизация насыщенности : 4:2:0
Битовая глубина : 8 бит
Тип развёртки : Прогрессивная
Бит/(Пиксели*Кадры) : 0.167
Размер потока : 1,66 Гбайт (73%)
Библиотека кодирования : x264 core 146 r2538 121396c
Настройки программы : cabac=1 / ref=10 / deblock=1:-3:-3 / analyse=0x3:0x113 / me=umh / subme=11 / psy=1 / psy_rd=0.99:0.04 / mixed_ref=1 / me_range=48 / chroma_me=1 / trellis=2 / 8x8dct=1 / cqm=0 / deadzone=21,11 / fast_pskip=1 / chroma_qp_offset=-3 / threads=6 / lookahead_threads=1 / sliced_threads=0 / nr=0 / decimate=1 / interlaced=0 / bluray_compat=0 / constrained_intra=0 / bframes=11 / b_pyramid=2 / b_adapt=2 / b_bias=0 / direct=3 / weightb=1 / open_gop=0 / weightp=2 / keyint=240 / keyint_min=24 / scenecut=40 / intra_refresh=0 / rc_lookahead=40 / rc=2pass / mbtree=0 / bitrate=1756 / ratetol=1.0 / qcomp=0.60 / qpmin=0 / qpmax=69 / qpstep=4 / cplxblur=20.0 / qblur=0.5 / vbv_maxrate=50000 / vbv_bufsize=62500 / nal_hrd=none / filler=0 / ip_ratio=1.40 / pb_ratio=1.30 / aq=1:1.00
Язык : English
Default : Да
Forced : Нет

Аудио #1
Идентификатор : 2
Формат : AC-3
Формат/Информация : Audio Coding 3
Расширение режима : CM (complete main)
Параметр Endianness формата : Big
Идентификатор кодека : A_AC3
Продолжительность : 2 ч. 15 м.
Вид битрейта : Постоянный
Битрейт : 192 Кбит/сек
Каналы : 2 канала
Расположение каналов : Front: L R
Частота : 48,0 КГц
Частота кадров : 31,250 кадров/сек (1536 spf)
Битовая глубина : 16 бит
Метод сжатия : С потерями
Размер потока : 186 Мбайт (8%)
Заголовок : MVO [HDRezka Studio]
Язык : Russian
Default : Да
Forced : Нет

Аудио #2
Идентификатор : 3
Формат : AC-3
Формат/Информация : Audio Coding 3
Расширение режима : CM (complete main)
Параметр Endianness формата : Big
Идентификатор кодека : A_AC3
Продолжительность : 2 ч. 15 м.
Вид битрейта : Постоянный
Битрейт : 448 Кбит/сек
Каналы : 6 каналов
Расположение каналов : Front: L C R, Side: L R, LFE
Частота : 48,0 КГц
Частота кадров : 31,250 кадров/сек (1536 spf)
Битовая глубина : 16 бит
Метод сжатия : С потерями
Размер потока : 435 Мбайт (19%)
Заголовок : [Original]
Язык : Norwegian
Default : Нет
Forced : Нет

Текст #1
Идентификатор : 4
Формат : UTF-8
Идентификатор кодека : S_TEXT/UTF8
Идентификатор кодека/Информация : UTF-8 Plain Text
Продолжительность : 2 ч. 9 м.
Битрейт : 46 бит/сек
Count of elements : 857
Размер потока : 44,2 Кбайт (0%)
Заголовок : Full
Язык : Russian
Default : Нет
Forced : Нет

Текст #2
Идентификатор : 5
Формат : UTF-8
Идентификатор кодека : S_TEXT/UTF8
Идентификатор кодека/Информация : UTF-8 Plain Text
Продолжительность : 2 ч. 7 м.
Битрейт : 29 бит/сек
Count of elements : 1039
Размер потока : 27,1 Кбайт (0%)
Заголовок : Full
Язык : English
Default : Нет
Forced : Нет

Меню
00:00:00.000 : en:1
00:04:32.439 : en:2
00:11:15.174 : en:3
00:18:42.913 : en:4
00:21:40.632 : en:5
00:27:22.348 : en:6
00:32:36.119 : en:7
00:37:47.430 : en:8
00:45:13.917 : en:9
00:50:10.712 : en:10
00:56:16.702 : en:11
01:00:34.750 : en:12
01:05:27.125 : en:13
01:09:24.110 : en:14
01:14:36.921 : en:15
01:20:28.314 : en:16
Источник http://BlaTor.org

Трекер:  [ 11-Янв-2019 19:10 ]

  

Скачать .torrent

Размер .torrent файла 12 KB


Размер: 2.27 GB
Хэш (hash) релиза: 8bd698e00443d04b5fc1b725539420db0998faea
Подписка на обновления:

Торренты, похожие на 12-й человек Den 12. mann скачать торрент

Форум Название Автор Размер S L Добавлен
Зарубежные фильмы 2016-2018 (Новинки зарубежного кино) ·%· 12-й человек / Den 12. mann (2017) BDRip 720p | HDRezka Studio Galfimbul 48515681664.52 GB 0 0 1546672808

10:20

5-Янв-19

Зарубежные фильмы 2016-2018 (Новинки зарубежного кино) ·%· 12-й человек / Den 12. mann (2017) BDRip-AVC | HDRezka Studio Galfimbul 19110539481.78 GB 0 0 1546639807

01:10

5-Янв-19

Зарубежные фильмы 2016-2018 (Новинки зарубежного кино) ·%· 12-й человек / Den 12. mann (2017) HDRip от Scarabey | HDRezka Studio Galfimbul 15529734161.45 GB 0 0 1546534850

20:00

3-Янв-19

Зарубежные фильмы 2016-2018 (Новинки зарубежного кино) ·%· 12-й человек / Den 12. mann (2017) BDRip от MegaPeer | HDRezka Studio Galfimbul 23490357812.19 GB 0 0 1546372211

22:50

1-Янв-19

Зарубежные фильмы 2016-2018 (Новинки зарубежного кино) ·%· 12-й человек / Den 12. mann (2017) BDRip от MegaPeer | HDRezka Studio Galfimbul 15668449281.46 GB 0 0 1546259413

15:30

31-Дек-18

Зарубежные фильмы 2016-2018 (Новинки зарубежного кино) ·%· 12-й человек / Den 12. mann / The 12th Man (2017) DVD9 от NovaLan | L Galfimbul 59512094725.54 GB 0 0 1532179225

16:20

21-Июл-18

Зарубежные фильмы 2016-2018 (Новинки зарубежного кино) ·%· 12-й человек / Den 12. mann (2017) HDRip | КПК | L Galfimbul 544542350519 MB 0 0 1532178030

16:00

21-Июл-18

Зарубежные фильмы 2016-2018 (Новинки зарубежного кино) ·%· 12-й человек / Den 12. mann (2017) BDRip 1080p | L Galfimbul 1394568905012.99 GB 0 0 1532118697

23:31

20-Июл-18

Зарубежные фильмы 2016-2018 (Новинки зарубежного кино) ·%· 12-й человек / Den 12. mann (2017) HDRip от R.G.Resident | L Galfimbul 15675904001.46 GB 0 0 1532086216

14:30

20-Июл-18

Зарубежные фильмы 2016-2018 (Новинки зарубежного кино) ·%· 12-й человек / Den 12. mann (2017) HDRip от R.G.Resident | L Galfimbul 22052818362.05 GB 0 0 1532071817

10:30

20-Июл-18

Зарубежные фильмы 2016-2018 (Новинки зарубежного кино) ·· 12-й человек / Den 12. mann (Харольд Цварт) [2017, триллер, драма, военный, история, BDRip 1080p] Sub Galfimbul 105584493089.83 GB 0 0 1527945610

16:20

2-Июн-18

Зарубежные фильмы до 2016 ·%· 12-й человек / The 12th Man / Den 12. mann (Харольд Цварт / Harald Zwart) [2017, Норвегия, Военный, драма, BDRemux 1080p] MVO + Sub (Rus, Eng, Nor) + Original Nor Galfimbul 3602320816833.55 GB 0 0 1532223033

04:30

22-Июл-18

Зарубежные фильмы до 2016 ·%· 12-й человек / The 12th Man / Den 12. mann (Харольд Цварт / Harald Zwart) [2017, Норвегия, Военный, драма, BDRip 720p] MVO + Sub (Rus, Eng) + Original Nor Galfimbul 69464416406.47 GB 0 0 1531983693

10:01

19-Июл-18

Еще никто не оставлял запись к записи скачать торрент 12-й человек Den 12. mann . Будь первым!

!Обратная связь