Скачать через торрент Хэллоуин Halloween Фильм бесплатно в хорошем качестве torrent

Скачивайте на UnionPeer.org фильмы через торрент без регистрации. Новинки кино в хорошем качестве через торрент. На UnionPeer.org можно скачать через торрент фильмы 2014 и 2015 годов. Самые новые фильмы.

Скачать торрент Хэллоуин Halloween бесплатно через .torrent фильм мультфильм сериал

Статистика раздачи
Размер:  3.8 GB   |    Зарегистрирован:  2 месяца 7 дней   |    .torrent скачан:  36 раз   |   
Раздают:  1  
   
загрузка...
 
Автор Сообщение

Galfimbul

avatar Galfimbul


Хэллоуин /Halloween

Год выхода: 2018
Жанр: Ужасы, триллер
Режиссер: Дэвид Гордон Грин
В ролях: Джейми Ли Кёртис, Джуди Грир, Энди Мэтичак, Джеймс Джуд Кортни, Ник Касл, Халук Бильгинер, Уилл Пэттон, Риан Риис, Джефферсон Холл, Тоби Хасс

О фильме:
Зло неизменно возвращается, и им нельзя управлять. Его можно временно уничтожить, застрелить, сжечь, но вернется оно всё равно неизбежно. Майкл Майерс не закончил свое дело в Хэддонфилде, и скоро он вернётся домой, чтобы снова убивать.



Страна: США
Студия: Blumhouse Productions, Miramax, Rough House Pictures
Продолжительность: 01:45:47

Файл
Качество: BDRip-HEVC 1080p
Видео: HEVC/H.265, 1920x804, ~4651 Kbps
Звук: AC3, 6 ch, 384 Kbps Дублированный (iTunes)
General
General
Unique ID : 337148423169930473236792509961641364220 (0xFDA46CA4BB0E7A36FF3D5332E8678AFC)
Complete name : D:ВИДЕОфильмыHalloween (2018) BDRip 1080p [HEVC] 10bit.mkv
Format : Matroska
Format version : Version 4
File size : 3.80 GiB
Duration : 1 h 45 min
Overall bit rate : 5 138 kb/s
Movie name : Хэллоуин
Writing application : XviD4PSP 7.0.464 DAILY
Writing library : Lavf57.71.100
ErrorDetectionType : Per level 1
Attachments : poster.jpg
ACTORS : Джейми Ли Кёртис, Джуди Грир,
COUNTRY : США
DATE : 2018
DIRECTOR : Дэвид Гордон Грин
ENCODING_INFO : MATROSKA,WEBM > MKV 1080p 10-bit / H264 > X265 CRF 17.0 Medium / AC3 > AC3 CBR 384kbps
GENRE : ужасы, триллер
HD_VIDEO : 1
Language : und
MEDIA_TYPE : 9
ORIGINAL_TITLE : Halloween

Video
ID : 1
Format : HEVC
Format/Info : High Efficiency Video Coding
Format profile : Main 10@L4.1@High
Codec ID : V_MPEGH/ISO/HEVC
Duration : 1 h 45 min
Bit rate : 4 651 kb/s
Width : 1 920 pixels
Height : 804 pixels
Display aspect ratio : 2.40:1
Frame rate mode : Constant
Frame rate : 23.976 (24000/1001) FPS
Color space : YUV
Chroma subsampling : 4:2:0
Bit depth : 10 bits
Bits/(Pixel*Frame) : 0.126
Stream size : 3.44 GiB (91%)
Writing library : x265 2.9+9-f74003e88622:[Windows][GCC 8.2.0][64 bit] 10bit
Encoding settings : cpuid=1111039 / frame-threads=13 / numa-pools=12 / wpp / no-pmode / no-pme / no-psnr / no-ssim / log-level=3 / input-csp=1 / input-res=1920x804 / interlace=0 / total-frames=0 / level-idc=41 / high-tier=1 / uhd-bd=0 / ref=5 / allow-non-conformance / no-repeat-headers / annexb / no-aud / no-hrd / info / hash=0 / no-temporal-layers / no-open-gop / min-keyint=24 / keyint=240 / gop-lookahead=0 / bframes=7 / b-adapt=2 / b-pyramid / bframe-bias=0 / rc-lookahead=40 / lookahead-slices=5 / scenecut=40 / radl=0 / no-intra-refresh / ctu=64 / min-cu-size=8 / rect / amp / max-tu-size=32 / tu-inter-depth=1 / tu-intra-depth=1 / limit-tu=0 / rdoq-level=0 / dynamic-rd=0.00 / no-ssim-rd / signhide / no-tskip / nr-intra=0 / nr-inter=0 / no-constrained-intra / no-strong-intra-smoothing / max-merge=2 / limit-refs=3 / no-limit-modes / me=3 / subme=7 / merange=57 / temporal-mvp / weightp / no-weightb / no-analyze-src-pics / deblock=-3:-3 / no-sao / no-sao-non-deblock / rd=3 / no-early-skip / rskip / no-fast-intra / no-tskip-fast / no-cu-lossless / no-b-intra / no-splitrd-skip / rdpenalty=0 / psy-rd=2.00 / psy-rdoq=0.00 / no-rd-refine / no-lossless / cbqpoffs=0 / crqpoffs=0 / rc=crf / crf=17.0 / qcomp=0.60 / qpstep=4 / stats-write=0 / stats-read=0 / vbv-maxrate=50000 / vbv-bufsize=50000 / vbv-init=0.9 / crf-max=0.0 / crf-min=0.0 / ipratio=1.40 / pbratio=1.30 / aq-mode=1 / aq-strength=1.00 / cutree / zone-count=0 / no-strict-cbr / qg-size=32 / no-rc-grain / qpmax=69 / qpmin=0 / no-const-vbv / sar=1 / overscan=0 / videoformat=5 / range=0 / colorprim=1 / transfer=1 / colormatrix=1 / chromaloc=0 / display-window=0 / max-cll=0,0 / min-luma=0 / max-luma=1023 / log2-max-poc-lsb=8 / vui-timing-info / vui-hrd-info / slices=1 / no-opt-qp-pps / no-opt-ref-list-length-pps / no-multi-pass-opt-rps / scenecut-bias=0.05 / no-opt-cu-delta-qp / no-aq-motion / no-hdr / no-hdr-opt / no-dhdr10-opt / no-idr-recovery-sei / analysis-reuse-level=5 / scale-factor=0 / refine-intra=0 / refine-inter=0 / refine-mv=0 / no-limit-sao / ctu-info=0 / no-lowpass-dct / refine-mv-type=0 / copy-pic=1 / max-ausize-factor=1.0 / no-dynamic-refine / no-single-sei
Language : English
Default : Yes
Forced : No
Color range : Limited
Color primaries : BT.709
Transfer characteristics : BT.709
Matrix coefficients : BT.709

Audio
ID : 2
Format : AC-3
Format/Info : Audio Coding 3
Commercial name : Dolby Digital
Codec ID : A_AC3
Duration : 1 h 45 min
Bit rate mode : Constant
Bit rate : 384 kb/s
Channel(s) : 6 channels
Channel layout : L R C LFE Ls Rs
Sampling rate : 48.0 kHz
Frame rate : 31.250 FPS (1536 SPF)
Bit depth : 16 bits
Compression mode : Lossy
Stream size : 291 MiB (7%)
Title : iTunes
Language : Russian
Service kind : Complete Main
Default : Yes
Forced : Yes

Menu
00:00:00.000 : :00:00:00.000
00:08:42.522 : :00:08:42.522
00:14:26.949 : :00:14:26.949
00:20:46.996 : :00:20:46.996
00:23:17.855 : :00:23:17.855
00:27:45.080 : :00:27:45.080
00:32:55.724 : :00:32:55.724
00:40:51.366 : :00:40:51.366
00:44:41.053 : :00:44:41.053
00:48:26.403 : :00:48:26.403
00:53:26.453 : :00:53:26.453
00:59:18.597 : :00:59:18.597
01:03:22.340 : :01:03:22.340
01:07:29.629 : :01:07:29.629
01:14:46.524 : :01:14:46.524
01:18:10.561 : :01:18:10.561
01:22:04.837 : :01:22:04.837
01:30:09.904 : :01:30:09.904
01:35:33.394 : :01:35:33.394
01:40:41.494 : :01:40:41.494
Релиз от: HANNIBAL
Источник http://BlaTor.org

Трекер:  [ 11-Янв-2019 20:10 ]

  

Скачать .torrent

Размер .torrent файла 19 KB


Размер: 3.8 GB
Хэш (hash) релиза: a4f1f15b5af7c5d44a02b12c36a68dbc84a3d1f9
Подписка на обновления:

Торренты, похожие на Хэллоуин Halloween скачать торрент

Форум Название Автор Размер S L Добавлен
Зарубежные фильмы 2016-2018 (Новинки зарубежного кино) ·%· Хэллоуин / Halloween (2018) BDRip-AVC от OlLanDGroup | Лицензия Galfimbul 781580117745 MB 0 0 1550566812

12:00

19-Фев-19

Зарубежные фильмы 2016-2018 (Новинки зарубежного кино) ·%· Хэллоуин / Halloween (2018) BDRip-AVC от OlLanDGroup | D, P | Лицензия Galfimbul 19333149291.8 GB 0 0 1550512214

20:50

18-Фев-19

Зарубежные фильмы 2016-2018 (Новинки зарубежного кино) ·%· Хэллоуин / Halloween (2018) HDRip от Scarabey | Лицензия Galfimbul 15520440321.45 GB 0 0 1550511020

20:30

18-Фев-19

Зарубежные фильмы 2016-2018 (Новинки зарубежного кино) ·%· Хэллоуин / Halloween (2018) HDRip от MegaPeer | Лицензия Galfimbul 781249662745 MB 0 0 1550411417

16:50

17-Фев-19

Зарубежные фильмы 2016-2018 (Новинки зарубежного кино) ·%· Хэллоуин / Halloween (2018) UHD BDRemux 2160p от ExKinoRay | 4K | HDR | Лицензия Galfimbul 5223135130648.64 GB 0 0 1550366408

04:20

17-Фев-19

Зарубежные фильмы 2016-2018 (Новинки зарубежного кино) ·%· Хэллоуин / Halloween (2018) BDRip 1080p от селезень | Лицензия Galfimbul 1191571711111.1 GB 0 0 1550358018

02:00

17-Фев-19

Зарубежные фильмы 2016-2018 (Новинки зарубежного кино) ·%· Хэллоуин / Halloween (2018) Blu-Ray EUR 1080p | Лицензия Galfimbul 3800600060435.4 GB 0 0 1550356809

01:40

17-Фев-19

Зарубежные фильмы 2016-2018 (Новинки зарубежного кино) ·%· Хэллоуин / Halloween (2018) BDRip 720p от KinoGadget | iPad | iTunes Galfimbul 17090434641.59 GB 0 0 1547663433

21:30

16-Янв-19

Зарубежные фильмы 2016-2018 (Новинки зарубежного кино) ·%· Хэллоуин / Halloween (2018) BDRip 720p от k.e.n & MegaPeer | iTunes Galfimbul 42907938474 GB 0 0 1547613021

07:30

16-Янв-19

Зарубежные фильмы 2016-2018 (Новинки зарубежного кино) ·%· Хэллоуин / Halloween (2018) BDRip-AVC от HELLYWOOD | iTunes Galfimbul 22885475632.13 GB 0 0 1547439011

07:10

14-Янв-19

Зарубежные фильмы 2016-2018 (Новинки зарубежного кино) ·%· Хэллоуин / Halloween (2018) BDRip от ExKinoRay | iTunes Galfimbul 15186058381.41 GB 0 0 1547284232

12:10

12-Янв-19

Зарубежные фильмы 2016-2018 (Новинки зарубежного кино) ·%· Хэллоуин / Halloween (2018) BDRemux 1080p от селезень | iTunes Galfimbul 2676602943224.93 GB 0 0 1547148625

22:30

10-Янв-19

Зарубежные фильмы 2016-2018 (Новинки зарубежного кино) ·%· Хэллоуин / Halloween (2018) UHD BDRemux 2160p от селезень | 4K | HDR | iTunes Galfimbul 5090804877447.41 GB 0 0 1547013007

08:50

9-Янв-19

Зарубежные фильмы 2016-2018 (Новинки зарубежного кино) ·%· Хэллоуин / Halloween (2018) BDRip 1080p от селезень | iTunes Galfimbul 1125482541810.48 GB 0 0 1546744215

06:10

6-Янв-19

Зарубежные фильмы 2016-2018 (Новинки зарубежного кино) ·%· Хэллоуин / Halloween (2018) BDRip 720p от селезень | iTunes Galfimbul 59954436385.58 GB 0 0 1546740618

05:10

6-Янв-19

Зарубежные фильмы 2016-2018 (Новинки зарубежного кино) ·%· Хэллоуин / Halloween (2018) WEBRip-HEVC 2160p | 4K | HDR | iTunes Galfimbul 1710265964915.93 GB 0 0 1546003863

16:31

28-Дек-18

Зарубежные фильмы 2016-2018 (Новинки зарубежного кино) ·%· Хэллоуин / Halloween (2018) WEB-DLRip от Scarabey | iTunes Galfimbul 15528017921.45 GB 0 0 1545524453

03:20

23-Дек-18

Зарубежные фильмы 2016-2018 (Новинки зарубежного кино) ·%· Хэллоуин / Halloween (2018) WEB-DLRip от k.e.n | iTunes Galfimbul 779624448744 MB 0 0 1545310846

16:00

20-Дек-18

Зарубежные фильмы 2016-2018 (Новинки зарубежного кино) ·%· Хэллоуин / Halloween (2018) WEB-DLRip-AVC | iTunes Galfimbul 780532345744 MB 0 0 1545308450

15:20

20-Дек-18

Еще никто не оставлял запись к записи скачать торрент Хэллоуин Halloween . Будь первым!

!Обратная связь