Saya Kataoka - SMILE ESCAPE UnionPeer.org HD

2015, 2014 UnionPeer.org

.

1.92 GB   |    :  5 5    |    .torrent :  190    |   
1  
   
...
 

Galfimbul

avatar Galfimbul


SMILE ESCAPE

: 2014
:
: Idol, Gravure, Bikini, Lingerie, Cosplay
: 01:38:57
: -

:

: ENFD-5608

: Saya Kataoka

: DVDRip
: MP4
: x264, 720x478, 59.447 FPS, 2 601 kb/s
: AAC, 48.0 kHz, 2 channels, 160 kb/s
General
Complete name : ENFD-5608.m4v
Format : MPEG-4
Format profile : Base Media / Version 2
Codec ID : mp42 (isom/iso2/avc1/mp41)
File size : 1.92 GiB
Duration : 1 h 38 min
Overall bit rate mode : Variable
Overall bit rate : 2 775 kb/s
Movie name : [ENFD-5608] SMILE ESCAPE
Performer : Saya Kataoka 片岡沙耶
Encoded date : UTC 2018-07-03 13:44:09
Tagged date : UTC 2018-07-03 13:44:09
Writing application : HandBrake 1.1.1 2018061800

Video
ID : 1
Format : AVC
Format/Info : Advanced Video Codec
Format profile : High@L3.1
Format settings : CABAC / 6 Ref Frames
Format settings, CABAC : Yes
Format settings, ReFrames : 6 frames
Codec ID : avc1
Codec ID/Info : Advanced Video Coding
Duration : 1 h 38 min
Bit rate : 2 601 kb/s
Width : 720 pixels
Height : 478 pixels
Display aspect ratio : 16:9
Frame rate mode : Variable
Frame rate : 59.447 FPS
Minimum frame rate : 29.970 FPS
Maximum frame rate : 59.960 FPS
Color space : YUV
Chroma subsampling : 4:2:0
Bit depth : 8 bits
Scan type : Progressive
Bits/(Pixel*Frame) : 0.127
Stream size : 1.80 GiB (94%)
Writing library : x264 core 152 r2854 e9a5903
Encoding settings : cabac=1 / ref=6 / deblock=1:-1:-1 / analyse=0x3:0x133 / me=umh / subme=10 / psy=1 / psy_rd=1,00:0,15 / mixed_ref=1 / me_range=24 / chroma_me=1 / trellis=2 / 8x8dct=1 / cqm=0 / deadzone=21,11 / fast_pskip=0 / chroma_qp_offset=-3 / threads=6 / lookahead_threads=1 / sliced_threads=0 / nr=0 / decimate=1 / interlaced=0 / bluray_compat=0 / constrained_intra=0 / bframes=6 / b_pyramid=2 / b_adapt=2 / b_bias=0 / direct=3 / weightb=1 / open_gop=0 / weightp=2 / keyint=300 / keyint_min=30 / scenecut=40 / intra_refresh=0 / rc_lookahead=60 / rc=crf / mbtree=1 / crf=19,0 / qcomp=0,60 / qpmin=0 / qpmax=69 / qpstep=4 / vbv_maxrate=17500 / vbv_bufsize=17500 / crf_max=0,0 / nal_hrd=none / filler=0 / ip_ratio=1,40 / aq=1:1,00
Encoded date : UTC 2018-07-03 13:44:09
Tagged date : UTC 2018-07-03 13:44:09
Color range : Limited
Color primaries : BT.601 NTSC
Transfer characteristics : BT.709
Matrix coefficients : BT.601
Menus : 3

Audio
ID : 2
Format : AAC
Format/Info : Advanced Audio Codec
Format profile : LC
Codec ID : mp4a-40-2
Duration : 1 h 38 min
Bit rate mode : Variable
Bit rate : 159 kb/s
Channel(s) : 2 channels
Channel positions : Front: L R
Sampling rate : 48.0 kHz
Frame rate : 46.875 FPS (1024 SPF)
Compression mode : Lossy
Stream size : 113 MiB (6%)
Title : Stereo / Stereo
Language : Japanese
Default : Yes
Alternate group : 1
Encoded date : UTC 2018-07-03 13:44:09
Tagged date : UTC 2018-07-03 13:44:09
Menus : 3

Menu
ID : 3
Codec ID : text
Duration : 1 h 38 min
Language : English
Encoded date : UTC 2018-07-03 13:44:09
Tagged date : UTC 2018-07-03 13:44:09
Menu For : 1,2
00:00:00.000 : Chapter 1
00:07:31.251 : Chapter 2
00:17:31.183 : Chapter 3
00:26:34.093 : Chapter 4
00:34:07.445 : Chapter 5
00:46:34.725 : Chapter 6
00:54:11.548 : Chapter 7
01:05:18.314 : Chapter 8
01:16:55.511 : Chapter 9
01:28:00.509 : Chapter 10
Bit rate mode : VBR
<div class="post-align" style="text-align: center;"> (DHT\PeX )</div>

 ·  , , FAQ-
:  [ 12--2019 00:26 ]

  

.torrent

.torrent 77 KB


: 1.92 GB
(hash) : bc129d13319e9edee579ed7d79e13bcac1822288
··
...

Saya Kataoka - SMILE ESCAPE . !

!