Rui Kiriyama - Pichi! Korekushon UnionPeer.org HD

2015, 2014 UnionPeer.org

.

897 MB   |    :  2 8    |    .torrent :  130    |   
1  
   
...
 

Galfimbul

avatar Galfimbul


Pichi! Korekushon

: 2008
:
: Idol, Gravure, Bikini, Lingerie
: 00:46:57
: -

:

: ENFD-5094

: Rui Kiriyama

: DVDRip
: MP4
: x264, 720x476, 58.131 FPS, 2 499 kb/s
: AAC, 48.0 kHz, 2 channels, 160 kb/s
General
Complete name : ENFD-5094.m4v
Format : MPEG-4
Format profile : Base Media / Version 2
Codec ID : mp42 (isom/iso2/avc1/mp41)
File size : 897 MiB
Duration : 46 min 57 s
Overall bit rate mode : Variable
Overall bit rate : 2 671 kb/s
Movie name : [ENFD-5094] ピーチ!コレクション
Performer : Rui Kiriyama 桐山瑠衣
Recorded date : 2008/07/25
Encoded date : UTC 2018-07-05 11:10:21
Tagged date : UTC 2018-07-05 11:10:21
Writing application : HandBrake 1.1.1 2018061800

Video
ID : 1
Format : AVC
Format/Info : Advanced Video Codec
Format profile : High@L3.1
Format settings : CABAC / 6 Ref Frames
Format settings, CABAC : Yes
Format settings, ReFrames : 6 frames
Codec ID : avc1
Codec ID/Info : Advanced Video Coding
Duration : 46 min 57 s
Bit rate : 2 499 kb/s
Width : 720 pixels
Height : 476 pixels
Display aspect ratio : 16:9
Original display aspect ratio : 16:9
Frame rate mode : Variable
Frame rate : 58.131 FPS
Minimum frame rate : 29.970 FPS
Maximum frame rate : 59.960 FPS
Color space : YUV
Chroma subsampling : 4:2:0
Bit depth : 8 bits
Scan type : Progressive
Bits/(Pixel*Frame) : 0.125
Stream size : 839 MiB (94%)
Writing library : x264 core 152 r2854 e9a5903
Encoding settings : cabac=1 / ref=6 / deblock=1:-1:-1 / analyse=0x3:0x133 / me=umh / subme=10 / psy=1 / psy_rd=1,00:0,15 / mixed_ref=1 / me_range=24 / chroma_me=1 / trellis=2 / 8x8dct=1 / cqm=0 / deadzone=21,11 / fast_pskip=0 / chroma_qp_offset=-3 / threads=6 / lookahead_threads=1 / sliced_threads=0 / nr=0 / decimate=1 / interlaced=0 / bluray_compat=0 / constrained_intra=0 / bframes=6 / b_pyramid=2 / b_adapt=2 / b_bias=0 / direct=3 / weightb=1 / open_gop=0 / weightp=2 / keyint=300 / keyint_min=30 / scenecut=40 / intra_refresh=0 / rc_lookahead=60 / rc=crf / mbtree=1 / crf=19,0 / qcomp=0,60 / qpmin=0 / qpmax=69 / qpstep=4 / vbv_maxrate=17500 / vbv_bufsize=17500 / crf_max=0,0 / nal_hrd=none / filler=0 / ip_ratio=1,40 / aq=1:1,00
Encoded date : UTC 2018-07-05 11:10:21
Tagged date : UTC 2018-07-05 11:10:21
Color range : Limited
Color primaries : BT.601 NTSC
Transfer characteristics : BT.709
Matrix coefficients : BT.601
Menus : 3

Audio
ID : 2
Format : AAC
Format/Info : Advanced Audio Codec
Format profile : LC
Codec ID : mp4a-40-2
Duration : 46 min 57 s
Bit rate mode : Variable
Bit rate : 158 kb/s
Channel(s) : 2 channels
Channel positions : Front: L R
Sampling rate : 48.0 kHz
Frame rate : 46.875 FPS (1024 SPF)
Compression mode : Lossy
Stream size : 53.1 MiB (6%)
Title : Stereo / Stereo
Language : Japanese
Default : Yes
Alternate group : 1
Encoded date : UTC 2018-07-05 11:10:21
Tagged date : UTC 2018-07-05 11:10:21
Menus : 3

Menu
ID : 3
Codec ID : text
Duration : 46 min 57 s
Language : English
Encoded date : UTC 2018-07-05 11:10:21
Tagged date : UTC 2018-07-05 11:10:21
Bit rate mode : CBR
Menu For : 1,2
00:00:00.000 : Chapter 1
00:03:01.982 : Chapter 2
00:09:14.921 : Chapter 3
00:13:45.124 : Chapter 4
00:21:19.311 : Chapter 5
00:25:44.743 : Chapter 6
00:31:32.557 : Chapter 7
00:36:18.076 : Chapter 8
00:40:51.816 : Chapter 9
<div class="post-align" style="text-align: center;"> (DHT\PeX )</div>

 ·  , , FAQ-
:  [ 12--2019 00:46 ]

  

.torrent

.torrent 35 KB


: 897 MB
(hash) : a54da3bde99b9075bba76a43eae0fb9db579fa2f
··
...

Rui Kiriyama - Pichi! Korekushon . !

!