Скачать через торрент Хантер Киллер Hunter Killer Фильм бесплатно в хорошем качестве torrent

Скачивайте на UnionPeer.org фильмы через торрент без регистрации. Новинки кино в хорошем качестве через торрент. На UnionPeer.org можно скачать через торрент фильмы 2014 и 2015 годов. Самые новые фильмы.

Скачать торрент Хантер Киллер Hunter Killer бесплатно через .torrent фильм мультфильм сериал

Статистика раздачи
Размер:  3.24 GB   |    Зарегистрирован:  10 дней   |    .torrent скачан:  79 раз   |   
Раздают:  1  
   
загрузка...
 
Автор Сообщение

Galfimbul

avatar Galfimbul


Хантер Киллер /Hunter Killer

Год выхода: 2018
Жанр: Боевик, триллер
Режиссер: Донован Марш
В ролях: Джерард Батлер, Гэри Олдман, Коммон, Зейн Холц, Микаэл Нюквист, Тоби Стивенс, Линда Карделлини, Кори Джонсон, Адам Джеймс, Генри Гудман, Колин Стинтон, Александр Дьяченко, Михаил Горевой

О фильме:
Американская атакующая субмарина «Хантер Киллер» вместе с подразделением Военно-Морских сил США вступает в крайне рискованную боевую авантюру по спасению мира от катастрофы. Когда время на исходе и каждая минута на счету, элитной команде придется совершить невозможное, чтобы предотвратить конфликт мирового масштаба.



Страна: США
Студия: Hunter Killer Productions, G-BASE, Hishow Entertainment
Продолжительность: 02:00:54
Перевод: Профессиональный многоголосый | HDRezka Studio

Файл
Кодек: AVC
Качество: HDRip 720p | Hunter.Killer.2018.720p.KORSUB.HDRip.x264.AAC2.0-STUTTERSHIT
Видео: MPEG-4 AVC, 3500 Kбит/с, 1280x534, 25.000 кадр/с
Аудио #1: Русский ( АС3, 2ch, 192 Кбит/с, 48.0 KHz) Профессиональный (многоголосый, закадровый) HDRezka Studio
Аудио #2: Английский ( АС3, 2ch, 256 Кбит/с, 48.0 KHz)
Субтитры: Kорейские (вшитые, неотключаемые)
Источник: Hunter.Killer.2018.720p.KORSUB.HDRip.x264.AAC2.0-STUTTERSHIT
General
Unique ID : 196197607865305962134829859240008365898 (0x939A48E8AF66819791D74E75AADE374A)
Complete name : Hunter.Killer.2018.HDRip.720p.mkv
Format : Matroska
Format version : Version 4 / Version 2
File size : 3.24 GiB
Duration : 2 h 0 min
Overall bit rate : 3 836 kb/s
Encoded date : UTC 2019-01-11 18:07:27
Writing application : mkvmerge v7.1.0 ('Good Love') 64bit built on Jul 27 2014 13:06:55
Writing library : libebml v1.3.0 + libmatroska v1.4.1

Video
ID : 1
Format : AVC
Format/Info : Advanced Video Codec
Format profile : High@L4.1
Format settings, CABAC : Yes
Format settings, RefFrames : 4 frames
Codec ID : V_MPEG4/ISO/AVC
Duration : 2 h 0 min
Bit rate : 3 500 kb/s
Width : 1 280 pixels
Height : 534 pixels
Display aspect ratio : 2.40:1
Original display aspect ratio : 2.40:1
Frame rate mode : Constant
Frame rate : 25.000 FPS
Color space : YUV
Chroma subsampling : 4:2:0
Bit depth : 8 bits
Scan type : Progressive
Bits/(Pixel*Frame) : 0.205
Stream size : 2.86 GiB (88%)
Writing library : x264 core 148 r2748 97eaef2
Encoding settings : cabac=1 / ref=4 / deblock=1:0:0 / analyse=0x3:0x113 / me=umh / subme=9 / psy=1 / psy_rd=1.00:0.00 / mixed_ref=1 / me_range=16 / chroma_me=1 / trellis=2 / 8x8dct=1 / cqm=0 / deadzone=21,11 / fast_pskip=1 / chroma_qp_offset=-2 / threads=72 / lookahead_threads=4 / sliced_threads=0 / nr=0 / decimate=1 / interlaced=0 / bluray_compat=0 / constrained_intra=0 / bframes=3 / b_pyramid=2 / b_adapt=2 / b_bias=0 / direct=3 / weightb=1 / open_gop=0 / weightp=2 / keyint=250 / keyint_min=25 / scenecut=40 / intra_refresh=0 / rc_lookahead=50 / rc=abr / mbtree=1 / bitrate=3500 / ratetol=1.0 / qcomp=0.60 / qpmin=0 / qpmax=69 / qpstep=4 / ip_ratio=1.40 / aq=1:1.00
Language : English
Default : Yes
Forced : No

Audio #1
ID : 2
Format : AC-3
Format/Info : Audio Coding 3
Format settings, Endianness : Big
Codec ID : A_AC3
Duration : 2 h 0 min
Bit rate mode : Constant
Bit rate : 192 kb/s
Channel(s) : 2 channels
Channel positions : Front: L R
Sampling rate : 48.0 kHz
Frame rate : 31.250 FPS (1536 SPF)
Bit depth : 16 bits
Compression mode : Lossy
Stream size : 166 MiB (5%)
Title : MVO | HDRezka Studio
Language : Russian
Service kind : Complete Main
Default : Yes
Forced : No

Audio #2
ID : 3
Format : AC-3
Format/Info : Audio Coding 3
Format settings, Endianness : Big
Codec ID : A_AC3
Duration : 2 h 0 min
Bit rate mode : Constant
Bit rate : 256 kb/s
Channel(s) : 2 channels
Channel positions : Front: L R
Sampling rate : 48.0 kHz
Frame rate : 31.250 FPS (1536 SPF)
Bit depth : 16 bits
Compression mode : Lossy
Stream size : 221 MiB (7%)
Language : English
Service kind : Complete Main
Default : No
Forced : No
Источник http://BlaTor.org

Трекер:  [ 12-Янв-2019 03:20 ]

  

Скачать .torrent

Размер .torrent файла 16 KB


Размер: 3.24 GB
Хэш (hash) релиза: 54568088ca37e170cfe30ae39f6118af4d2e5494
Подписка на обновления:

Торренты, похожие на Хантер Киллер Hunter Killer скачать торрент

Форум Название Автор Размер S L Добавлен
Зарубежные фильмы 2016-2018 (Новинки зарубежного кино) ·%· Хантер Киллер / Hunter Killer (2018) UHD BDRemux 2160p от селезень | 4K | HDR | iTunes Galfimbul 6054252373056.38 GB 0 0 1548101409

23:10

21-Янв-19

Зарубежные фильмы 2016-2018 (Новинки зарубежного кино) ·%· Хантер Киллер / Hunter Killer (2018) HDRip | iTunes Galfimbul 22959390722.14 GB 0 0 1548073818

15:30

21-Янв-19

Зарубежные фильмы 2016-2018 (Новинки зарубежного кино) ·%· Хантер Киллер / Hunter Killer (2018) HDRip-AVC | iTunes Galfimbul 24834217662.31 GB 0 0 1548065413

13:10

21-Янв-19

Зарубежные фильмы 2016-2018 (Новинки зарубежного кино) ·%· Хантер Киллер / Hunter Killer (2018) HDRip от MegaPeer | iTunes Galfimbul 784902266749 MB 0 0 1548007829

21:10

20-Янв-19

Зарубежные фильмы 2016-2018 (Новинки зарубежного кино) ·%· Хантер Киллер / Hunter Killer (2018) BDRip 720p от селезень | iTunes Galfimbul 43043403244.01 GB 0 0 1547916011

19:40

19-Янв-19

Зарубежные фильмы 2016-2018 (Новинки зарубежного кино) ·%· Хантер Киллер / Hunter Killer (2018) WEB-DLRip | КПК | iTunes Galfimbul 482491906460 MB 0 0 1547758809

00:00

18-Янв-19

Зарубежные фильмы 2016-2018 (Новинки зарубежного кино) ·%· Хантер Киллер / Hunter Killer (2018) WEB-DLRip от Scarabey | iTunes Galfimbul 15536148481.45 GB 0 0 1547662214

21:10

16-Янв-19

Зарубежные фильмы 2016-2018 (Новинки зарубежного кино) ·%· Хантер Киллер / Hunter Killer (2018) WEB-DLRip-AVC от OlLanDGroup | iTunes Galfimbul 21848341242.03 GB 0 0 1547553010

14:50

15-Янв-19

Зарубежные фильмы 2016-2018 (Новинки зарубежного кино) ·%· Хантер Киллер | Hunter Killer (2018) WEB-DLRip-AVC от ExKinoRay | iTunes Galfimbul 15536631931.45 GB 0 0 1547519412

05:30

15-Янв-19

Зарубежные фильмы 2016-2018 (Новинки зарубежного кино) ·%· Хантер Киллер / Hunter Killer (2018) WEB-DLRip от MegaPeer | iTunes Galfimbul 15680696321.46 GB 0 0 1547503809

01:10

15-Янв-19

Зарубежные фильмы 2016-2018 (Новинки зарубежного кино) ·%· Хантер Киллер / Hunter Killer (2018) WEB-DL 1080p от селезень | iTunes Galfimbul 46921934184.37 GB 0 0 1547502629

00:50

15-Янв-19

Зарубежные фильмы 2016-2018 (Новинки зарубежного кино) ·%· Хантер Киллер / Hunter Killer (2018) WEB-DL 720p от селезень | iTunes Galfimbul 42219880553.93 GB 0 0 1547502616

00:50

15-Янв-19

Зарубежные фильмы 2016-2018 (Новинки зарубежного кино) ·%· Хантер Киллер / Hunter Killer (2018) WEBRip-AVC | HDrezka Studio Galfimbul 17678121931.65 GB 0 0 1547230215

21:10

11-Янв-19

Зарубежные фильмы 2016-2018 (Новинки зарубежного кино) ·%· Хантер Киллер / Hunter Killer (2018) WEBRip-AVC от OlLanDGroup | HDRezka Studio Galfimbul 15669739711.46 GB 0 0 1547221815

18:50

11-Янв-19

Зарубежные фильмы 2016-2018 (Новинки зарубежного кино) ·%· Хантер Киллер / Hunter Killer (2018) WEBRip 1080p от Dalemake | HDrezka Studio Galfimbul 55903508875.21 GB 0 0 1547209811

15:30

11-Янв-19

Зарубежные фильмы 2016-2018 (Новинки зарубежного кино) ·%· Хантер Киллер / Hunter Killer (2018) WEBRip от Dalemake | HDrezka Studio Galfimbul 15629742081.46 GB 0 0 1547206210

14:30

11-Янв-19

Еще никто не оставлял запись к записи скачать торрент Хантер Киллер Hunter Killer . Будь первым!

!Обратная связь