Скачать через торрент Сокровища О.К. Фильм бесплатно в хорошем качестве torrent

Скачивайте на UnionPeer.org фильмы через торрент без регистрации. Новинки кино в хорошем качестве через торрент. На UnionPeer.org можно скачать через торрент фильмы 2014 и 2015 годов. Самые новые фильмы.

Скачать торрент Сокровища О.К. бесплатно через .torrent фильм мультфильм сериал

Статистика раздачи
Размер:  3.66 GB   |    Зарегистрирован:  2 месяца 13 дней   |    .torrent скачан:  20 раз   |   
Раздают:  1  
   
загрузка...
 
Автор Сообщение

erzsebet

avatar erzsebet


Сокровища О.К.

Страна: Россия
Жанр: приключения, комедия
Год выпуска: 2013
Продолжительность: 01:44:00

Перевод: Не требуется
Субтитры: нет
Режиссер: Дмитрий Коробкин

В ролях: [i]Алексей Воробьев, Эльвира Ибрагимова, Байбулат Батуллин, Мария Кожевникова, Сергей Шакуров, Виктор Вержбицкий, Гоша Куценко, Светлана Чуйкина, Денис Ясик, Сергей Никоненко


Описание: Во время осады Казани Иваном Грозным прекрасная ханша Сююмбике приказывает спрятать несметные богатства в озере Кабан. И вот уже 500 лет судьба клада неизвестна…

В наши дни тайна сокровищ открывается обаятельному ловеласу Кириллу, и он устремляется на поиски заветного клада. На пути к богатствам Кирилл знакомится с неприступной красавицей Гулей, которая совершенно не собирается попадать под влияние чар авантюриста. Но совместные похождения и постоянно преследующая опасность заставляют молодых людей иначе посмотреть друг на друга. И неужели только сокровища могут стать главной наградой за опасные приключения?!


Сэмпл: http://multi-up.com/1220073

Тип релиза: BDRip 720p
Контейнер: MKV
Видео: MPEG4 Video (H264) 1280x720 25fps 4994kbps 0.199 bits/pix
Аудио: Dolby AC3 48000Hz 6ch 448kbps
General
Unique ID : 217360409723362844282412056789435829491 (0xA38617992D6459A8AC43FFA0FF444CF3)
Complete name : D:\Downloads\Сокровища О.К. BDRip720p.mkv
Format : Matroska
Format version : Version 4 / Version 2
File size : 3.66 GiB
Duration : 1 h 44 min
Overall bit rate : 5 042 kb/s
Encoded date : UTC 2019-01-12 01:06:17
Writing application : mkvmerge v15.0.0 ('Duel with the Devil') 64-bit
Writing library : libebml v1.3.5 + libmatroska v1.4.5

Video
ID : 1
Format : AVC
Format/Info : Advanced Video Codec
Format profile : High@L4.1
Format settings, CABAC : Yes
Format settings, RefFrames : 9 frames
Codec ID : V_MPEG4/ISO/AVC
Duration : 1 h 44 min
Bit rate : 4 593 kb/s
Width : 1 280 pixels
Height : 720 pixels
Display aspect ratio : 16:9
Frame rate mode : Constant
Frame rate : 25.000 FPS
Color space : YUV
Chroma subsampling : 4:2:0
Bit depth : 8 bits
Scan type : Progressive
Bits/(Pixel*Frame) : 0.199
Stream size : 3.34 GiB (91%)
Writing library : x264 core 125 r2208 d9d2288
Encoding settings : cabac=1 / ref=9 / deblock=1:-3:-3 / analyse=0x3:0x133 / me=tesa / subme=11 / psy=1 / psy_rd=1.00:0.15 / mixed_ref=1 / me_range=32 / chroma_me=1 / trellis=2 / 8x8dct=1 / cqm=0 / deadzone=21,11 / fast_pskip=0 / chroma_qp_offset=-3 / threads=12 / lookahead_threads=2 / sliced_threads=0 / nr=0 / decimate=1 / interlaced=0 / bluray_compat=0 / constrained_intra=0 / bframes=8 / b_pyramid=2 / b_adapt=2 / b_bias=0 / direct=1 / weightb=1 / open_gop=0 / weightp=2 / keyint=250 / keyint_min=25 / scenecut=40 / intra_refresh=0 / rc=crf / mbtree=0 / crf=18.0 / qcomp=0.60 / qpmin=0 / qpmax=69 / qpstep=4 / ip_ratio=1.40 / pb_ratio=1.30 / aq=2:1.00
Language : English
Default : Yes
Forced : No

Audio
ID : 2
Format : AC-3
Format/Info : Audio Coding 3
Format settings, Endianness : Big
Codec ID : A_AC3
Duration : 1 h 44 min
Bit rate mode : Constant
Bit rate : 448 kb/s
Channel(s) : 6 channels
Channel positions : Front: L C R, Side: L R, LFE
Sampling rate : 48.0 kHz
Frame rate : 31.250 FPS (1536 SPF)
Bit depth : 16 bits
Compression mode : Lossy
Stream size : 333 MiB (9%)
Language : Russian
Service kind : Complete Main
Default : Yes
Forced : Yes
[/i]

Трекер:  [ 12-Янв-2019 04:20 ]

  

Скачать .torrent

Размер .torrent файла 5 KB


Размер: 3.66 GB
Хэш (hash) релиза: f759eb1ca8184b16d90e773957f8ec3957c96496
Подписка на обновления:

Торренты, похожие на Сокровища О.К. скачать торрент

Форум Название Автор Размер S L Добавлен
Российские фильмы до 2016 ·· Сокровища О.К. (Дмитрий Коробкин) [2013, Россия, приключения, комедия, BDRip] Galfimbul 15691386881.46 GB 0 0 1387465815

18:10

19-Дек-13

Российские фильмы до 2016 ·· Сокровища О.К (Дмитрий Коробкин) [2013, Комедия, приключения, BDRip 720p] Galfimbul 42879947493.99 GB 0 0 1385633180

13:06

28-Ноя-13

Российские фильмы до 2016 ·· Сокровища О.К. (Дмитрий Коробкин) [2013, Комедия, приключения, BDRip 1080p] [Лицензия] Galfimbul 93281699778.69 GB 0 0 1385632838

13:00

28-Ноя-13

Российские фильмы до 2016 ·· Сокровища О.К (Дмитрий Коробкин) [2013, Комедия, приключения, Blu-Ray 1080i] Galfimbul 1636786749615.24 GB 0 0 1385577857

21:44

27-Ноя-13

Российские фильмы до 2016 ·· Сокровища О.К. (Дмитрий Коробкин) [2013, Приключения, комедия, BDRip] [Лицензия] Galfimbul 783792128747 MB 0 0 1371421736

01:28

17-Июн-13

Российские фильмы до 2016 ·· Сокровища О.К. (Дмитрий Коробкин) [2013, комедия, приключения, BDRip] Galfimbul 15691386881.46 GB 0 0 1371381829

14:23

16-Июн-13

Еще никто не оставлял запись к записи скачать торрент Сокровища О.К. . Будь первым!

!Обратная связь