Скачать через торрент Анон Anon Фильм бесплатно в хорошем качестве torrent

Скачивайте на UnionPeer.org фильмы через торрент без регистрации. Новинки кино в хорошем качестве через торрент. На UnionPeer.org можно скачать через торрент фильмы 2014 и 2015 годов. Самые новые фильмы.

Скачать торрент Анон Anon бесплатно через .torrent фильм мультфильм сериал

Статистика раздачи
Размер:  3.21 GB   |    Зарегистрирован:  2 месяца 6 дней   |    .torrent скачан:  70 раз   |   
Раздают:  1  
   
загрузка...
 
Автор Сообщение

Galfimbul

avatar Galfimbul


Анон / Anon

Год выпуска: 2018
Жанр: Фантастика, триллер
Выпущено: Германия, США, K5 Film, K5 International, K5 Media Group
Режиссер: Эндрю Никкол
В ролях: Клайв Оуэн, Аманда Сайфред, Колм Фиор, Соня Уолгер, Марк О’Брайэн, Джо Пинг, Иддо Голдберг, Себастьян Пижотт, Рэйчел Робертс (I), Этан Таварес

О фильме: Идеальное общество будущего: режим тотального надзора, отсутствие личной жизни, приватных территорий и гражданских прав. Казалось бы, в полностью контролируемом государстве нет места ошибкам и правонарушениям. Но однажды детектив Сол Фриленд знакомится с девушкой, которая не числится в базах данных. Перед копом приоткрывается дверь преступного мира новой эры…


Продолжительность: 01:39:50
Перевод:
#1: Дублированный | Лицензия
#2: Профессиональный многоголосый | HDRezka Studio
Субтитры: Русские (форсированные, полные), английские

Формат: MKV
Качество: BDRip 720р
Видео: MPEG-4 AVC, 1280x692 (1.85:1), 23.976 fps, 3520 Kbps, 0.166 bit/pixel
Аудио #01: 48 kHz, AC3, 5.1, 448 Kbps | Лицензия | RUS |
Аудио #02: 48 kHz, AC3, 2.0, 192 Kbps | HDRezka Studio | RUS |
Аудио #03: 48 kHz, AC3, 5.1, 448 Kbps | Оригинал | ENG |
x264 [info]: frame I:1222 Avg QP: 9.56 size:135485
x264 [info]: frame P:27329 Avg QP:13.01 size: 36616
x264 [info]: frame B:115050 Avg QP:14.51 size: 12740
---------------------------------------------------------------------------

General
Unique ID : 223781373221796252039396160835880926674 (0xA85AB98A6BEB20C58067308A3256BDD2)
Complete name : D:Anon.2018.2xRus.BDRip.720p.ExKinoRay.mkv
Format : Matroska
Format version : Version 2
File size : 3.21 GiB
Duration : 1 h 39 min
Overall bit rate : 4 606 kb/s
Movie name : Anon 2018 from ExKinoRay
Encoded date : UTC 2019-01-11 21:08:31
Writing application : mkvmerge v5.6.0 ('Kenya Kane') built on May 27 2012 16:44:04
Writing library : libebml v1.2.3 + libmatroska v1.3.0

Video
ID : 1
Format : AVC
Format/Info : Advanced Video Codec
Format profile : High@L4.1
Format settings, CABAC : Yes
Format settings, ReFrames : 9 frames
Codec ID : V_MPEG4/ISO/AVC
Duration : 1 h 39 min
Bit rate : 3 520 kb/s
Width : 1 280 pixels
Height : 692 pixels
Display aspect ratio : 1.85:1
Frame rate mode : Constant
Frame rate : 23.976 (24000/1001) FPS
Color space : YUV
Chroma subsampling : 4:2:0
Bit depth : 8 bits
Scan type : Progressive
Bits/(Pixel*Frame) : 0.166
Stream size : 2.39 GiB (74%)
Title : Enigma
Writing library : x264 core 148 r2638 7599210
Encoding settings : cabac=1 / ref=9 / deblock=1:-2:-2 / analyse=0x3:0x113 / me=umh / subme=11 / psy=1 / psy_rd=1.05:0.10 / mixed_ref=1 / me_range=32 / chroma_me=1 / trellis=2 / 8x8dct=1 / cqm=0 / deadzone=21,11 / fast_pskip=0 / chroma_qp_offset=-3 / threads=12 / lookahead_threads=3 / sliced_threads=0 / nr=0 / decimate=1 / interlaced=0 / bluray_compat=0 / constrained_intra=0 / bframes=14 / b_pyramid=2 / b_adapt=2 / b_bias=0 / direct=3 / weightb=1 / open_gop=0 / weightp=2 / keyint=240 / keyint_min=23 / scenecut=40 / intra_refresh=0 / rc_lookahead=40 / rc=2pass / mbtree=0 / bitrate=3520 / ratetol=1.0 / qcomp=0.60 / qpmin=0 / qpmax=51 / qpstep=4 / cplxblur=20.0 / qblur=0.5 / vbv_maxrate=50000 / vbv_bufsize=62500 / nal_hrd=none / filler=0 / ip_ratio=1.40 / pb_ratio=1.30 / aq=2:0.90
Default : Yes
Forced : No
Color range : Limited
Color primaries : BT.709
Transfer characteristics : BT.709
Matrix coefficients : BT.709

Audio #1
ID : 2
Format : AC-3
Format/Info : Audio Coding 3
Mode extension : CM (complete main)
Format settings, Endianness : Big
Codec ID : A_AC3
Duration : 1 h 39 min
Bit rate mode : Constant
Bit rate : 448 kb/s
Channel(s) : 6 channels
Channel positions : Front: L C R, Side: L R, LFE
Sampling rate : 48.0 kHz
Frame rate : 31.250 FPS (1536 spf)
Compression mode : Lossy
Stream size : 320 MiB (10%)
Title : Dub (R5)
Language : Russian
Default : Yes
Forced : No

Audio #2
ID : 3
Format : AC-3
Format/Info : Audio Coding 3
Mode extension : CM (complete main)
Format settings, Endianness : Big
Codec ID : A_AC3
Duration : 1 h 39 min
Bit rate mode : Constant
Bit rate : 192 kb/s
Channel(s) : 2 channels
Channel positions : Front: L R
Sampling rate : 48.0 kHz
Frame rate : 31.250 FPS (1536 spf)
Compression mode : Lossy
Stream size : 137 MiB (4%)
Title : MVO (HDRezka)
Language : Russian
Default : No
Forced : No

Audio #3
ID : 4
Format : AC-3
Format/Info : Audio Coding 3
Mode extension : CM (complete main)
Format settings, Endianness : Big
Codec ID : A_AC3
Duration : 1 h 39 min
Bit rate mode : Constant
Bit rate : 448 kb/s
Channel(s) : 6 channels
Channel positions : Front: L C R, Side: L R, LFE
Sampling rate : 48.0 kHz
Frame rate : 31.250 FPS (1536 spf)
Compression mode : Lossy
Stream size : 320 MiB (10%)
Language : English
Default : No
Forced : No

Text #1
ID : 5
Format : UTF-8
Codec ID : S_TEXT/UTF8
Codec ID/Info : UTF-8 Plain Text
Title : Forced
Language : Russian
Default : Yes
Forced : No

Text #2
ID : 6
Format : UTF-8
Codec ID : S_TEXT/UTF8
Codec ID/Info : UTF-8 Plain Text
Title : Full
Language : Russian
Default : No
Forced : No

Text #3
ID : 7
Format : UTF-8
Codec ID : S_TEXT/UTF8
Codec ID/Info : UTF-8 Plain Text
Language : English
Default : No
Forced : No

Menu
00:00:00.000 : :Chapter 01
00:21:58.900 : :Chapter 02
00:31:47.614 : :Chapter 03
00:41:29.277 : :Chapter 04
01:01:34.523 : :Chapter 05
01:14:49.818 : :Chapter 06
01:22:25.774 : :Chapter 07
01:32:05.853 : :Chapter 08


Автор релиза:
Источник http://BlaTor.org

Трекер:  [ 12-Янв-2019 06:00 ]

  

Скачать .torrent

Размер .torrent файла 16 KB


Размер: 3.21 GB
Хэш (hash) релиза: 3e810264ec5067ed3f9d257789444d571902a26c
Подписка на обновления:

Торренты, похожие на Анон Anon скачать торрент

Форум Название Автор Размер S L Добавлен
Зарубежные фильмы 2016-2018 (Новинки зарубежного кино) ·%· Анон / Anon (2018) BDRemux 1080p | Локализованная версия | D, P Galfimbul 2706625145725.21 GB 0 0 1549014022

12:40

1-Фев-19

Зарубежные фильмы 2016-2018 (Новинки зарубежного кино) ·%· Анон / Anon (2018) BDRip от ExKinoRay | Локализованная версия | Лицензия Galfimbul 15687178861.46 GB 0 0 1548613213

21:20

27-Янв-19

Зарубежные фильмы 2016-2018 (Новинки зарубежного кино) ·%· Анон / Anon (2018) BDRip 720p от ExKinoRay | Локализованная версия | Лицензия Galfimbul 41010270653.82 GB 0 0 1548517815

18:50

26-Янв-19

Зарубежные фильмы 2016-2018 (Новинки зарубежного кино) ·%· Анон / Anon (2018) BDRip от MegaPeer | Локализованная версия | Лицензия Galfimbul 15680983041.46 GB 0 0 1548403232

11:00

25-Янв-19

Зарубежные фильмы 2016-2018 (Новинки зарубежного кино) ·%· Анон / Anon (2018) BDRip 1080p от OlLanDGroup | Rus Transfer | Лицензия Galfimbul 80223107017.47 GB 0 0 1548397216

09:20

25-Янв-19

Зарубежные фильмы 2016-2018 (Новинки зарубежного кино) ·%· Анон / Anon (2018) Blu-ray 1080p | Rus Transfer | Лицензия Galfimbul 3198602660929.79 GB 0 0 1548366615

00:50

25-Янв-19

Зарубежные фильмы 2016-2018 (Новинки зарубежного кино) ·%· Анон / Anon (2018) BDRip 720p от KinoGadget | iPad | Лицензия Galfimbul 10804066391.01 GB 0 0 1548145815

11:30

22-Янв-19

Зарубежные фильмы 2016-2018 (Новинки зарубежного кино) ·%· Анон / Anon (2018) BDRip от ExKinoRay | Лицензия Galfimbul 15707620381.46 GB 0 0 1547501414

00:30

15-Янв-19

Зарубежные фильмы 2016-2018 (Новинки зарубежного кино) ·%· Анон / Anon (2018) BDRip-AVC от OlLanDGroup | Лицензия Galfimbul 782720492746 MB 0 0 1547391612

18:00

13-Янв-19

Зарубежные фильмы 2016-2018 (Новинки зарубежного кино) ·%· Анон / Anon (2018) DVD9 | Лицензия Galfimbul 65700352006.12 GB 0 0 1547227824

20:30

11-Янв-19

Зарубежные фильмы 2016-2018 (Новинки зарубежного кино) ·%· Анон / Anon (2018) BDRip 720p от HELLYWOOD | iTunes Galfimbul 46424212664.32 GB 0 0 1538340648

23:50

30-Сен-18

Зарубежные фильмы 2016-2018 (Новинки зарубежного кино) ·%· Анон / Anon (2018) BDRip-AVC от HELLYWOOD | iTunes Galfimbul 22903375702.13 GB 0 0 1538319758

18:02

30-Сен-18

Зарубежные фильмы 2016-2018 (Новинки зарубежного кино) ·· Анон / Anon (Эндрю Никкол) [2018, Фантастика, триллер, WEB-DLRip 720p] iTunes Galfimbul 27808317962.59 GB 0 0 1527102769

22:12

23-Май-18

Зарубежные фильмы 2016-2018 (Новинки зарубежного кино) ·· Анон / Anon (Эндрю Никкол) [2018, Фантастика, триллер, WEB-DLRip 1080p] iTunes Galfimbul 44769305744.17 GB 0 0 1527102017

22:00

23-Май-18

Еще никто не оставлял запись к записи скачать торрент Анон Anon . Будь первым!

!Обратная связь