Скачать через торрент Дышите нормально Andi? e?lilega Фильм бесплатно в хорошем качестве torrent

Скачивайте на UnionPeer.org фильмы через торрент без регистрации. Новинки кино в хорошем качестве через торрент. На UnionPeer.org можно скачать через торрент фильмы 2014 и 2015 годов. Самые новые фильмы.

Скачать торрент Дышите нормально Andi? e?lilega бесплатно через .torrent фильм мультфильм сериал

Статистика раздачи
Размер:  2.25 GB   |    Зарегистрирован:  10 дней   |    .torrent скачан:  14 раз   |   
Раздают:  1  
   
загрузка...
 
Автор Сообщение

Galfimbul

avatar Galfimbul


Дышите нормально /Andi? e?lilega / And Breathe Normally

Год выхода: 2018
Жанр: Драма
Режиссер: Исолд Уггадоттир
В ролях: Кристин Лора Харальдсдоттир, Бабетида Саджо, Патрик Ноккви Петурссон, Браги Арнасон, Торстейнн Бахман, Агуст Бьярнасон, Свеинн Геирссон, Сольвейг Гюдмундсдоттир, Хельга Вала Хельгадоттир, Джейс Йонсон
О фильме:
История о двух женщинах, проживающих на самом краю полуострова Рейкьянес в Исландии. Лара - исландка, беззаветно любящая своего сына. Заботу о нём она сочетает с активной борьбой за права человека. Аджа - беженка из далёкой Гвинеи. Находящаяся на грани отчаяния женщина надеется, что власти Скандинавии удовлетворят её просьбу о политическом убежище. В борьбе за лучший мир для себя и своих близких они встречаются снова и снова, в череде хлопот и обстоятельств порой забывая, что всё, что им так необходимо - глубоко вздохнуть и начать ценить каждую секунду ежедневного счастья.



Страна: Исландия, Швеция, Бельгия, Zik Zak Kvikmyndir
Продолжительность: 01:42:41
Перевод: Любительский (двухголосый закадровый) | HiWay Grope

Файл
Кодек: MPEG-4 AVC/x.264
Качество: WEBRip 720p
Видео: 1280x536, 23.976 fps, ~2947 kbps, 0.179 bit/pixel
Звук:
Аудио rus: AC3, 48 kHz, 2 ch, 192 Kbps
Субтитры: отсутствуют

Реклама: присутствует

Семпл
General
Unique ID : 31532563276884419230253822606592227769 (0x17B8F36691945C087287E6B1759CB9B9)
Complete name : D:And.Breathe.Normally.2018.720p.WEBRip.HiWayGropeAnd.Breathe.Normally.2018.720p.WEBRip.HiWayGrope.mkv
Format : Matroska
Format version : Version 4
File size : 2.25 GiB
Duration : 1 h 42 min
Overall bit rate mode : Variable
Overall bit rate : 3 141 kb/s
Encoded date : UTC 2019-01-11 23:04:09
Writing application : mkvmerge v25.0.0 ('Prog Noir') 64-bit
Writing library : libebml v1.3.6 + libmatroska v1.4.9

Video
ID : 1
Format : AVC
Format/Info : Advanced Video Codec
Format profile : High@L5
Format settings : CABAC / 4 Ref Frames
Format settings, CABAC : Yes
Format settings, RefFrames : 4 frames
Codec ID : V_MPEG4/ISO/AVC
Duration : 1 h 42 min
Bit rate mode : Variable
Bit rate : 2 947 kb/s
Maximum bit rate : 12.0 Mb/s
Width : 1 280 pixels
Height : 536 pixels
Display aspect ratio : 2.40:1
Frame rate mode : Constant
Frame rate : 23.976 (24000/1001) FPS
Standard : NTSC
Color space : YUV
Chroma subsampling : 4:2:0
Bit depth : 8 bits
Scan type : Progressive
Bits/(Pixel*Frame) : 0.179
Stream size : 2.11 GiB (94%)
Language : English
Default : Yes
Forced : No
Color range : Limited
Color primaries : BT.601 NTSC
Transfer characteristics : BT.601
Matrix coefficients : BT.601

Audio
ID : 2
Format : AC-3
Format/Info : Audio Coding 3
Commercial name : Dolby Digital
Codec ID : A_AC3
Duration : 1 h 42 min
Bit rate mode : Constant
Bit rate : 192 kb/s
Channel(s) : 2 channels
Channel layout : L R
Sampling rate : 48.0 kHz
Frame rate : 31.250 FPS (1536 SPF)
Bit depth : 16 bits
Compression mode : Lossy
Stream size : 141 MiB (6%)
Service kind : Complete Main
Default : Yes
Forced : No
Релиз от: HiWay Grope
Источник http://BlaTor.org

Трекер:  [ 12-Янв-2019 10:50 ]

  

Скачать .torrent

Размер .torrent файла 11 KB


Размер: 2.25 GB
Хэш (hash) релиза: ef5206bee19af0a03052cb5735e17fa45cecfa5b
Подписка на обновления:

Торренты, похожие на Дышите нормально Andi? e?lilega скачать торрент

Форум Название Автор Размер S L Добавлен
Зарубежные фильмы 2016-2018 (Новинки зарубежного кино) ·%· Дышите нормально / Andi? e?lilega / And Breathe Normally (2018) WEBRip | L2 Galfimbul 15246733201.42 GB 0 0 1547279428

10:50

12-Янв-19

Еще никто не оставлял запись к записи скачать торрент Дышите нормально Andi? e?lilega . Будь первым!

!Обратная связь