Скачать через торрент Дышите нормально Andi? e?lilega Фильм бесплатно в хорошем качестве torrent

Скачивайте на UnionPeer.org фильмы через торрент без регистрации. Новинки кино в хорошем качестве через торрент. На UnionPeer.org можно скачать через торрент фильмы 2014 и 2015 годов. Самые новые фильмы.

Скачать торрент Дышите нормально Andi? e?lilega бесплатно через .torrent фильм мультфильм сериал

Статистика раздачи
Размер:  1.42 GB   |    Зарегистрирован:  2 месяца 6 дней   |    .torrent скачан:  18 раз   |   
Раздают:  1  
   
загрузка...
 
Автор Сообщение

Galfimbul

avatar Galfimbul


Дышите нормально /Andi? e?lilega / And Breathe Normally

Год выхода: 2018
Жанр: Драма
Режиссер: Исолд Уггадоттир
В ролях: Кристин Лора Харальдсдоттир, Бабетида Саджо, Патрик Ноккви Петурссон, Браги Арнасон, Торстейнн Бахман, Агуст Бьярнасон, Свеинн Геирссон, Сольвейг Гюдмундсдоттир, Хельга Вала Хельгадоттир, Джейс Йонсон
О фильме:
История о двух женщинах, проживающих на самом краю полуострова Рейкьянес в Исландии. Лара - исландка, беззаветно любящая своего сына. Заботу о нём она сочетает с активной борьбой за права человека. Аджа - беженка из далёкой Гвинеи. Находящаяся на грани отчаяния женщина надеется, что власти Скандинавии удовлетворят её просьбу о политическом убежище. В борьбе за лучший мир для себя и своих близких они встречаются снова и снова, в череде хлопот и обстоятельств порой забывая, что всё, что им так необходимо - глубоко вздохнуть и начать ценить каждую секунду ежедневного счастья.



Страна: Исландия, Швеция, Бельгия, Zik Zak Kvikmyndir
Продолжительность: 01:42:41
Перевод: Любительский (двухголосый закадровый) | HiWay Grope

Файл
Кодек: XviD
Качество: WEBRip
Видео: 720x304, 23.976 fps, ~1780 kbps, 0.34 bit/pixel
Звук:
Аудио rus: AC3, 48 kHz, 2 ch, 192 Kbps
Субтитры: отсутствуют

Реклама: присутствует

Семпл
General
Complete name : D:And.Breathe.Normally.2018.WEBRip.HiWayGropeAnd.Breathe.Normally.2018.WEBRip.HiWayGrope.avi
Format : AVI
Format/Info : Audio Video Interleave
Format profile : OpenDML
File size : 1.42 GiB
Duration : 1 h 42 min
Overall bit rate : 1 980 kb/s
Writing application : Lavf57.71.100

Video
ID : 0
Format : MPEG-4 Visual
Format profile : Advanced Simple@L5
Format settings, BVOP : No
Format settings, QPel : No
Format settings, GMC : No warppoints
Format settings, Matrix : Default (H.263)
Codec ID : XVID
Codec ID/Hint : XviD
Duration : 1 h 42 min
Bit rate : 1 776 kb/s
Width : 720 pixels
Height : 304 pixels
Display aspect ratio : 2.40:1
Frame rate : 23.976 (24000/1001) FPS
Color space : YUV
Chroma subsampling : 4:2:0
Bit depth : 8 bits
Scan type : Progressive
Compression mode : Lossy
Bits/(Pixel*Frame) : 0.338
Stream size : 1.27 GiB (90%)
Writing library : XviD 67

Audio
ID : 1
Format : AC-3
Format/Info : Audio Coding 3
Commercial name : Dolby Digital
Codec ID : 2000
Duration : 1 h 42 min
Bit rate mode : Constant
Bit rate : 192 kb/s
Channel(s) : 2 channels
Channel layout : L R
Sampling rate : 48.0 kHz
Frame rate : 31.250 FPS (1536 SPF)
Bit depth : 16 bits
Compression mode : Lossy
Stream size : 141 MiB (10%)
Alignment : Aligned on interleaves
Interleave, duration : 32 ms (0.77 video frame)
Service kind : Complete Main
Релиз от: HiWay Grope
Источник http://BlaTor.org

Трекер:  [ 12-Янв-2019 10:50 ]

  

Скачать .torrent

Размер .torrent файла 14 KB


Размер: 1.42 GB
Хэш (hash) релиза: 6bdec31cb971d15aa779459761ae4395224cb4d5
Подписка на обновления:

Торренты, похожие на Дышите нормально Andi? e?lilega скачать торрент

Форум Название Автор Размер S L Добавлен
Зарубежные фильмы 2016-2018 (Новинки зарубежного кино) ·%· Дышите нормально / Andi? e?lilega / And Breathe Normally (2018) WEBRip 720p | L2 Galfimbul 24187988852.25 GB 0 0 1547279408

10:50

12-Янв-19

Еще никто не оставлял запись к записи скачать торрент Дышите нормально Andi? e?lilega . Будь первым!

!Обратная связь