Скачать через торрент Отклыкаченны Fanged Up Фильм бесплатно в хорошем качестве torrent

Скачивайте на UnionPeer.org фильмы через торрент без регистрации. Новинки кино в хорошем качестве через торрент. На UnionPeer.org можно скачать через торрент фильмы 2014 и 2015 годов. Самые новые фильмы.

Скачать торрент Отклыкаченны Fanged Up бесплатно через .torrent фильм мультфильм сериал

Статистика раздачи
Размер:  1.97 GB   |    Зарегистрирован:  10 дней   |    .torrent скачан:  47 раз   |   
Раздают:  1  
   
загрузка...
 
Автор Сообщение

Galfimbul

avatar Galfimbul


Отклыкаченны /Fanged Up

Год выхода: 2017
Жанр: Ужасы, комедия
Режиссер: Кристиан Джеймс
В ролях: Дэниэл О'Рейли, Даниэль Харольд, Стю Беннет, Вэс Блэквуд, Стивен Маркус, Стивен Беркофф, Лорен Сока, Крис Р. Райт, Хув Сэмюэл, Роланд Манукян
О фильме:
Дэнни - мелкий мошенник, который работает посудомойщиком в ночном клубе. Однажды он ввязывается в драку, после которой его внезапно отправляют в одну из самых зловещих тюрем Англии - Стоуксвиль. Там он начинает понимать, что это была не случайность, и у администрации тюрьмы на него особые планы.



Страна: Великобритания
Продолжительность: 01:28:37
Перевод: Любительский (двухголосый закадровый) | HiWay Grope

Файл
Кодек: MPEG-4 AVC/x.264
Качество: WEBRip 720p
Видео: 1280x544, 23.976 fps, ~2989 kbps, 0.179 bit/pixel
Звук:
Аудио rus: AC3, 48 kHz, 2 ch, 192 Kbps
Субтитры: отсутствуют

Реклама: присутствует

Семпл
General
Unique ID : 57972139131693124264985702846422902247 (0x2B9D072272CB43B2251621C8F0C0E5E7)
Complete name : D:Fanged.Up.2017.720p.WEBRip.HiWayGropeFanged.Up.2017.720p.WEBRip.HiWayGrope.mkv
Format : Matroska
Format version : Version 4
File size : 1.97 GiB
Duration : 1 h 28 min
Overall bit rate mode : Variable
Overall bit rate : 3 183 kb/s
Encoded date : UTC 2019-01-12 00:45:44
Writing application : mkvmerge v25.0.0 ('Prog Noir') 64-bit
Writing library : libebml v1.3.6 + libmatroska v1.4.9

Video
ID : 1
Format : AVC
Format/Info : Advanced Video Codec
Format profile : High@L5
Format settings : CABAC / 4 Ref Frames
Format settings, CABAC : Yes
Format settings, RefFrames : 4 frames
Codec ID : V_MPEG4/ISO/AVC
Duration : 1 h 28 min
Bit rate mode : Variable
Bit rate : 2 989 kb/s
Maximum bit rate : 12.0 Mb/s
Width : 1 280 pixels
Height : 544 pixels
Display aspect ratio : 2.35:1
Frame rate mode : Constant
Frame rate : 23.976 (24000/1001) FPS
Standard : NTSC
Color space : YUV
Chroma subsampling : 4:2:0
Bit depth : 8 bits
Scan type : Progressive
Bits/(Pixel*Frame) : 0.179
Stream size : 1.85 GiB (94%)
Language : English
Default : Yes
Forced : No
Color range : Limited
Color primaries : BT.601 NTSC
Transfer characteristics : BT.601
Matrix coefficients : BT.601

Audio
ID : 2
Format : AC-3
Format/Info : Audio Coding 3
Commercial name : Dolby Digital
Codec ID : A_AC3
Duration : 1 h 28 min
Bit rate mode : Constant
Bit rate : 192 kb/s
Channel(s) : 2 channels
Channel layout : L R
Sampling rate : 48.0 kHz
Frame rate : 31.250 FPS (1536 SPF)
Bit depth : 16 bits
Compression mode : Lossy
Stream size : 122 MiB (6%)
Service kind : Complete Main
Default : Yes
Forced : No
Релиз от: HiWay Grope
Источник http://BlaTor.org

Трекер:  [ 12-Янв-2019 10:50 ]

  

Скачать .torrent

Размер .torrent файла 20 KB


Размер: 1.97 GB
Хэш (hash) релиза: 368b9cf44b8597358acab5811c0de22c1bd9f0fa
Подписка на обновления:

Торренты, похожие на Отклыкаченны Fanged Up скачать торрент

Форум Название Автор Размер S L Добавлен
Зарубежные фильмы 2016-2018 (Новинки зарубежного кино) ·%· Отклыкаченны / Fanged Up (2017) WEBRip | L2 Galfimbul 13286432101.24 GB 0 0 1547279439

10:50

12-Янв-19

Еще никто не оставлял запись к записи скачать торрент Отклыкаченны Fanged Up . Будь первым!

!Обратная связь