Скачать через торрент Скорость убивает Speed Kills Фильм бесплатно в хорошем качестве torrent

Скачивайте на UnionPeer.org фильмы через торрент без регистрации. Новинки кино в хорошем качестве через торрент. На UnionPeer.org можно скачать через торрент фильмы 2014 и 2015 годов. Самые новые фильмы.

Скачать торрент Скорость убивает Speed Kills бесплатно через .torrent фильм мультфильм сериал

Статистика раздачи
Размер:  1.63 GB   |    Зарегистрирован:  6 дней   |    .torrent скачан:  12 раз   |   
Раздают:  1  
   
загрузка...
 
Автор Сообщение

Galfimbul

avatar Galfimbul


Год выпуска: Скорость убивает
Оригинальное название: Speed Kills
Страна: Пуэрто Рико
Жанр: триллер, драма, криминал, биография
Возраст: 16+

Режиссер: Джоди Скерфилд

В ролях: Джон Траволта, Кэтрин Уинник, Дженнифер Эспозито, Майкл Уэстон, Джеймс Римар, Келлан Латс, Мэттью Модайн, Том Сайзмор, Моран Атиас, Чарльз Гиллеспи

Описание: История жизни Бена Ароноффа, как история скоростной гонки на выживание. Кто выйдет победителем, оказавшись между молотом и наковальней, в схватке между полицией и мафией.

Продолжительность: 01:42:24
Перевод: Профессиональный многоголосый [HDrezka Studio]
Оригинальная дорожка: нет

Качество видео: BDRip 720p Исходник: Blu-Ray Remux (1080p) Формат: mp4
Видео кодек: MPEG-4 AVC Аудио кодек: AAC
Видео: 1280x544 (2.35:1) at 23.976 fps, AVC at 2 110 kbps avg, 0.126 bit/pixel
Аудио №1 Rus: 48.0 KHz, AAC, 2 ch, 160.0 Kbps
Субтитры: нет
Навигация по главам: нет
avs [info]: 1280x544p 1:1 @ 24000/1001 fps (cfr)
x264 [info]: using SAR=1/1
x264 [info]: using cpu capabilities: MMX2 SSE2Fast SSSE3 Cache64
x264 [info]: profile High, level 4.1, 4:2:0, 8-bit
x264 [info]: frame I:1288 Avg QP:15.25 size: 80814
x264 [info]: frame P:33808 Avg QP:18.66 size: 22172
x264 [info]: frame B:112216 Avg QP:21.21 size: 6832
x264 [info]: consecutive B-frames: 1.9% 2.3% 9.3% 32.6% 20.5% 26.8% 6.7%
x264 [info]: mb I I16..4: 11.7% 66.8% 21.5%
x264 [info]: mb P I16..4: 2.6% 10.8% 1.2% P16..4: 44.9% 14.6% 13.7% 0.5% 0.2% skip:11.5%
x264 [info]: mb B I16..4: 0.2% 1.0% 0.1% B16..8: 37.7% 6.6% 1.5% direct: 3.7% skip:49.2% L0:43.6% L1:47.2% BI: 9.2%
x264 [info]: 8x8 transform intra:73.2% inter:72.3%
x264 [info]: coded y,uvDC,uvAC intra: 69.5% 70.0% 35.4% inter: 15.8% 16.9% 1.6%
x264 [info]: i16 v,h,dc,p: 25% 29% 4% 42%
x264 [info]: i8 v,h,dc,ddl,ddr,vr,hd,vl,hu: 14% 23% 16% 5% 8% 8% 10% 7% 9%
x264 [info]: i4 v,h,dc,ddl,ddr,vr,hd,vl,hu: 21% 23% 12% 5% 9% 8% 10% 6% 6%
x264 [info]: i8c dc,h,v,p: 51% 23% 18% 8%
x264 [info]: Weighted P-Frames: Y:3.4% UV:1.2%
x264 [info]: ref P L0: 51.3% 11.1% 14.8% 6.2% 4.5% 3.8% 3.1% 1.8% 1.6% 1.7% 0.1% 0.0%
x264 [info]: ref B L0: 79.8% 8.5% 4.5% 2.4% 1.6% 1.2% 1.1% 0.6% 0.3%
x264 [info]: ref B L1: 95.4% 4.6%
x264 [info]: kb/s:2109.78
encoded 147312 frames, 3.82 fps, 2109.78 kb/s
General
Complete name : Skorost-ubivaet-2018.P.BDRip720p_KinoGadget.mp4
Format : MPEG-4
Format profile : Base Media
Codec ID : isom (isom)
File size : 1.63 GiB
Duration : 1 h 42 min
Overall bit rate mode : Variable
Overall bit rate : 2 278 kb/s
Movie name : Скорость убивает_KinoGadget
Performer : Джоди Скерфилд
Director : Джоди Скерфилд
Actor : Джон Траволта / Кэтрин Уинник / Дженнифер Эспозито / Майкл Уэстон / Джеймс Римар / Келлан Латс / Мэттью Модайн / Том Сайзмор / Моран Атиас / Чарльз Гиллеспи
Screenplay by : Дэвид Аарон Коэн / Джон Льюсенхоп / Пол Кастро
Producer : Оскар Генерале / Ричард Рионда Дель Кастро / Луильо Руис
Genre : Crime, Drama, Thriller
ContentType : Short Film
Recorded date : 2018
Encoded date : UTC 2019-01-10 07:15:52
Tagged date : UTC 2019-01-12 08:57:58
Cover : Yes
ContentRating : mpaa|R|400|
LongDeion : История жизни Бена Ароноффа, как история скоростной гонки на выживание. Кто выйдет победителем, оказавшись между молотом и наковальней, в схватке между полицией и мафией.
HDVideo : Yes

Video
ID : 1
Format : AVC
Format/Info : Advanced Video Codec
Format profile : High@L4.1
Format settings : CABAC / 10 Ref Frames
Format settings, CABAC : Yes
Format settings, ReFrames : 10 frames
Codec ID : avc1
Codec ID/Info : Advanced Video Coding
Duration : 1 h 42 min
Bit rate : 2 110 kb/s
Maximum bit rate : 22.9 Mb/s
Width : 1 280 pixels
Height : 544 pixels
Display aspect ratio : 2.35:1
Frame rate mode : Constant
Frame rate : 23.976 (24000/1001) FPS
Color space : YUV
Chroma subsampling : 4:2:0
Bit depth : 8 bits
Scan type : Progressive
Bits/(Pixel*Frame) : 0.126
Stream size : 1.51 GiB (93%)
Writing library : x264 core 157 r2935 545de2f
Encoding settings : cabac=1 / ref=10 / deblock=1:-2:-1 / analyse=0x3:0x133 / me=umh / subme=7 / psy=1 / psy_rd=1.00:0.00 / mixed_ref=1 / me_range=32 / chroma_me=1 / trellis=2 / 8x8dct=1 / cqm=0 / deadzone=21,11 / fast_pskip=0 / chroma_qp_offset=-2 / threads=3 / lookahead_threads=1 / sliced_threads=0 / nr=0 / decimate=1 / interlaced=0 / bluray_compat=0 / constrained_intra=0 / bframes=6 / b_pyramid=2 / b_adapt=2 / b_bias=0 / direct=1 / weightb=1 / open_gop=0 / weightp=2 / keyint=250 / keyint_min=25 / scenecut=40 / intra_refresh=0 / rc_lookahead=60 / rc=crf / mbtree=1 / crf=19.0 / qcomp=0.60 / qpmin=0 / qpmax=69 / qpstep=4 / ip_ratio=1.40 / aq=1:1.00
Encoded date : UTC 2019-01-09 21:52:54
Tagged date : UTC 2019-01-10 07:17:32

Audio
ID : 2
Format : AAC
Format/Info : Advanced Audio Codec
Format profile : LC
Codec ID : mp4a-40-2
Duration : 1 h 42 min
Bit rate mode : Variable
Bit rate : 160 kb/s
Maximum bit rate : 165 kb/s
Channel(s) : 2 channels
Channel positions : Front: L R
Sampling rate : 48.0 kHz
Frame rate : 46.875 FPS (1024 SPF)
Compression mode : Lossy
Stream size : 117 MiB (7%)
Title : HDrezka Studio
Language : Russian
Encoded date : UTC 2019-01-09 21:55:56
Tagged date : UTC 2019-01-10 07:17:32
Данный рип предназначен для просмотра на мобильных гаджетах с поддержкой формата mp4
Источник http://BlaTor.org

Трекер:  [ 12-Янв-2019 12:30 ]

  

Скачать .torrent

Размер .torrent файла 16 KB


Размер: 1.63 GB
Хэш (hash) релиза: eea2eb35fc88eb1b36c7a693669d520c3b0d81b6
Подписка на обновления:

Торренты, похожие на Скорость убивает Speed Kills скачать торрент

Форум Название Автор Размер S L Добавлен
Зарубежные фильмы 2016-2018 (Новинки зарубежного кино) ·%· Скорость убивает / Speed Kills (2018) BDRip-AVC Galfimbul 782617782746 MB 0 0 1547647208

17:00

16-Янв-19

Зарубежные фильмы 2016-2018 (Новинки зарубежного кино) ·%· Скорость убивает / Speed Kills (2018) BDRip | HDrezka Studio Galfimbul 15444848641.44 GB 0 0 1547591413

01:30

16-Янв-19

Зарубежные фильмы 2016-2018 (Новинки зарубежного кино) ·%· Скорость убивает / Speed Kills (2018) BDRip-AVC от OlLanDGroup | P, L2 Galfimbul 21929628482.04 GB 0 0 1547578221

21:50

15-Янв-19

Зарубежные фильмы 2016-2018 (Новинки зарубежного кино) ·%· Скорость убивает / Speed Kills (2018) BDRip 720p | HDrezka Studio Galfimbul 43186246294.02 GB 0 0 1547537415

10:30

15-Янв-19

Зарубежные фильмы 2016-2018 (Новинки зарубежного кино) ·%· Скорость убивает / Speed Kills (2018) BDRip 1080p | HDrezka Studio Galfimbul 79070962247.36 GB 0 0 1547490622

21:30

14-Янв-19

Зарубежные фильмы 2016-2018 (Новинки зарубежного кино) ·%· Скорость убивает / Speed Kills (2018) BDRip-AVC | HDrezka Studio Galfimbul 17866552081.66 GB 0 0 1547022608

11:30

9-Янв-19

Зарубежные фильмы 2016-2018 (Новинки зарубежного кино) ·%· Скорость убивает / Speed Kills (2018) WEB-DLRip-AVC | HDrezka Studio Galfimbul 15362177031.43 GB 0 0 1546757407

09:50

6-Янв-19

Зарубежные фильмы 2016-2018 (Новинки зарубежного кино) ·%· Скорость убивает / Speed Kills (2018) WEB-DLRip-AVC от ExKinoRay | HDRezka Studio Galfimbul 782192438746 MB 0 0 1546509040

12:50

3-Янв-19

Зарубежные фильмы 2016-2018 (Новинки зарубежного кино) ·%· Скорость убивает / Speed Kills (2018) WEB-DL 1080p | HDRezka Studio Galfimbul 38882893583.62 GB 0 0 1546455083

21:51

2-Янв-19

Зарубежные фильмы 2016-2018 (Новинки зарубежного кино) ·%· Скорость убивает / Speed Kills (2018) WEB-DLRip от Dalemake | L2 Galfimbul 15515115521.44 GB 0 0 1543208443

08:00

26-Ноя-18

Еще никто не оставлял запись к записи скачать торрент Скорость убивает Speed Kills . Будь первым!

!Обратная связь