Скачать через торрент Новый год, я люблю тебя! Фильм бесплатно в хорошем качестве torrent

Скачивайте на UnionPeer.org фильмы через торрент без регистрации. Новинки кино в хорошем качестве через торрент. На UnionPeer.org можно скачать через торрент фильмы 2014 и 2015 годов. Самые новые фильмы.

Скачать торрент Новый год, я люблю тебя! бесплатно через .torrent фильм мультфильм сериал

Статистика раздачи
Размер:  746 MB   |    Зарегистрирован:  6 дней   |    .torrent скачан:  27 раз   |   
Раздают:  1  
   
загрузка...
 
Автор Сообщение

Galfimbul

avatar Galfimbul


Новый год, я люблю тебя!



[b]Год выпуска:
2019
Жанр: Мелодрама, альманах
Режиссер: Павел Бардин, Михаил Местецкий, Михаил Сегал, Василий Сигарев, Клим Шипенко
В ролях: Таисия Вилкова, Максим Виторган, Михаил Горевой, Александр Горчилин, Степан Девонин, Фёдор Лавров, Пелагея, Андрей Смоляков, Ольга Сутулова, Альбина Тиханова, Регина Тодоренко, Влад Топалов, Яна Троянова

О фильме: Музыкальный киноальманах из восьми историй о событиях ушедшего года, праздничных чудесах, новых надеждах, творчестве и любви. Альманах «Новый год, я люблю тебя!» состоит из четырех художественных киноновелл и четырех музыкальных зарисовок. Герои фильма отправляются в путешествие по зимней Москве, пишут трогательные письма Деду Морозу и ждут новогодних чудес, которые происходят не только в ночь с 31 декабря на 1 января. В одной истории Ани Лорак и Валерий Меладзе показывают себя с неожиданной стороны, в другой – Пелагея оказывается в аэропорту, где слышит пронзительные истории любви, а в третьей – авторы вспоминают Олега Табакова, Иосифа Кобзона, Киру Муратову и других замечательных людей искусства. Несколько разных жанров выстраиваются в оригинальную конструкцию, чтобы создать ощущение яркого и доброго праздника.

Выпущено: Россия
Студия: Красный квадрат
Продолжительность: 00:50:22
Перевод: Не требуется

Файл
Качество: WEB-DLRip
Видео: XviD, ~ 1868 Кбит/с, 720x400
Аудио: AC3, 2 ch, 192 Кбит/с
General
Complete name : C:UsersuserDownloadsVideoNovyi.god.ya.lyublyu.tebya.2019.WEB-DLRip. Files-x.avi
Format : AVI
Format/Info : Audio Video Interleave
File size : 746 MiB
Duration : 50mn 22s
Overall bit rate : 2 069 Kbps
Writing application : VirtualDubMod 1.5.10.3 | www.virtualdub-fr.org || (build 2550/release)
Writing library : VirtualDubMod build 2550/release

Video
ID : 0
Format : MPEG-4 Visual
Format profile : Advanced Simple@L5
Format settings, BVOP : 1
Format settings, QPel : No
Format settings, GMC : No warppoints
Format settings, Matrix : Custom
Codec ID : XVID
Codec ID/Hint : XviD
Duration : 50mn 22s
Bit rate : 1 868 Kbps
Width : 720 pixels
Height : 400 pixels
Display aspect ratio : 16:9
Frame rate : 25.000 fps
Color space : YUV
Chroma subsampling : 4:2:0
Bit depth : 8 bits
Scan type : Progressive
Compression mode : Lossy
Bits/(Pixel*Frame) : 0.259
Stream size : 673 MiB (90%)
Writing library : XviD 73

Audio
ID : 1
Format : AC-3
Format/Info : Audio Coding 3
Mode extension : CM (complete main)
Codec ID : 2000
Duration : 50mn 22s
Bit rate mode : Constant
Bit rate : 192 Kbps
Channel(s) : 2 channels
Channel positions : Front: L R
Sampling rate : 48.0 KHz
Bit depth : 16 bits
Compression mode : Lossy
Stream size : 69.2 MiB (9%)
Alignment : Split accross interleaves
Interleave, duration : 40 ms (1.00 video frame)
Interleave, preload duration : 500 ms
Релиз от:
Источник http://BlaTor.org

Трекер:  [ 12-Янв-2019 14:30 ]

  

Скачать .torrent

Размер .torrent файла 15 KB


Размер: 746 MB
Хэш (hash) релиза: c8be3d6a958c0b4590d7643515cecbc386bb1776
Подписка на обновления:

Торренты, похожие на Новый год, я люблю тебя! скачать торрент

Форум Название Автор Размер S L Добавлен
Российские фильмы 2016-2018 (Новинки русского кино) ·%· Новый год, я люблю тебя! (2019) WEB-DLRip от GeneralFilm Galfimbul 779606016743 MB 0 0 1547365210

10:40

13-Янв-19

Российские фильмы 2016-2018 (Новинки русского кино) ·%· Новый год, я люблю тебя! (2019) WEB-DLRip-AVC от Files-x Galfimbul 775649269740 MB 0 0 1547320217

22:10

12-Янв-19

Еще никто не оставлял запись к записи скачать торрент Новый год, я люблю тебя! . Будь первым!

!Обратная связь