Скачать через торрент Дом игрушек Пи-ви Большое путешествие Пи-Ви Фильм бесплатно в хорошем качестве torrent

Скачивайте на UnionPeer.org фильмы через торрент без регистрации. Новинки кино в хорошем качестве через торрент. На UnionPeer.org можно скачать через торрент фильмы 2014 и 2015 годов. Самые новые фильмы.

Скачать торрент Дом игрушек Пи-ви Большое путешествие Пи-Ви бесплатно через .torrent фильм мультфильм сериал

Статистика раздачи
Размер:  1.37 GB   |    Зарегистрирован:  5 лет 1 месяц   |    .torrent скачан:  48 раз   |   
Раздают:  1  
 

Скачать Дом игрушек Пи-ви / Большое путешествие Пи-Ви / Pee-Wee's big holiday (2016) WEBRip-AVC | LakeFilms через torrent

 
 
Автор Сообщение

Galfimbul

avatar Galfimbul


Большое путешествие Пи-Ви (Дом игрушек Пи-ви) / Pee-Wee's big holiday

Год выпуска: 2016
Жанр: Комедия, приключения
Выпущено: США, Apatow Productions, Pee Wee Pictures
Режиссер: Джон Ли
В ролях: Пол Рубенс, Джордан Блэк, Даг Кокс, Джо Манганьелло, Джессика Поли, Стефани Беатриз, Патрик Эган, Тара Бак, Джон Х. Майер, Ричард Рили

О фильме: Пи-Ви - маленький человек, живущий в маленьком городке и весьма довольный своей жизнью. Однако, серия неожиданных событий вынуждает Пи-Ви покинуть свою малую родину и отправиться в грандиозное путешествие по стране. Он встретит настоящих грабителей банков, познакомится с дружелюбным фермером и его девятью сексуально озабоченными дочерьми, а еще побывает в общине амишей.



Техданные
Качество: WEBRip-AVC
Видео: MPEG-4 AVC, 1 997 Kb/s, 720x384, 25.000 FPS
Аудио: AAC, 2 ch, 192 Кбит/с
Продолжительность: 01:29:35
Перевод: Любительский двухголосый закадровый (LakeFilms)
Присутствует реклама!
General
Unique ID : 63228465946136743260386300958153938356 (0x2F915C0E1CB1A44F36797210F71895B4)
Complete name : D:новый списокPee-Wee's.big.holiday.SD.WEBRip.LakeFilms.mkv
Format : Matroska
Format version : Version 4
File size : 1.37 GiB
Duration : 1 h 29 min
Overall bit rate : 2 189 kb/s
Encoded date : UTC 2019-01-15 16:25:56
Writing application : mkvmerge v29.0.0 ('Like It Or Not') 64-bit
Writing library : libebml v1.3.6 + libmatroska v1.4.9

Video
ID : 1
Format : AVC
Format/Info : Advanced Video Codec
Format profile : [email protected]
Format settings : CABAC / 4 Ref Frames
Format settings, CABAC : Yes
Format settings, ReFrames : 4 frames
Codec ID : V_MPEG4/ISO/AVC
Duration : 1 h 29 min
Bit rate : 1 997 kb/s
Width : 720 pixels
Height : 384 pixels
Display aspect ratio : 1.85:1
Frame rate mode : Constant
Frame rate : 23.976 (24000/1001) FPS
Standard : NTSC
Color space : YUV
Chroma subsampling : 4:2:0
Bit depth : 8 bits
Scan type : Progressive
Bits/(Pixel*Frame) : 0.301
Stream size : 1.25 GiB (91%)
Language : English
Default : Yes
Forced : No
Color range : Limited
Color primaries : BT.601 NTSC
Transfer characteristics : BT.601
Matrix coefficients : BT.601

Audio
ID : 2
Format : AAC LC
Format/Info : Advanced Audio Codec Low Complexity
Codec ID : A_AAC-2
Duration : 1 h 29 min
Bit rate : 192 kb/s
Channel(s) : 2 channels
Channel layout : L R
Sampling rate : 48.0 kHz
Frame rate : 46.875 FPS (1024 SPF)
Compression mode : Lossy
Stream size : 121 MiB (9%)
Language : English
Default : Yes
Forced : No
Источник http://BlaTor.org

Внимание! AdBlock блокирует показ скриншотов, все вопросы к разработчикам )))
Трекер:  [ 18-Янв-2019 00:40 ]

  

Скачать .torrent

Размер .torrent файла 14 KB


Размер: 1.37 GB
Хэш (hash) релиза: 4086de84c1be217363c8225b214acb0b8261e48a
Подписка на обновления:

Еще никто не оставлял запись к записи скачать торрент Дом игрушек Пи-ви Большое путешествие Пи-Ви . Будь первым!

!Обратная связь