[VRBangers.com] Angela White UnionPeer.org HD

2015, 2014 UnionPeer.org

.

6.27 GB   |    :  4 4    |    .torrent :  960    |   
1  
   
 

Galfimbul

avatar Galfimbul


<div class="post-align" style="text-align: center;"> </div>
: Angela White
: CryptoCUMency Deal
: VRBangers.com

: 2018 .
: Big Tits, Blowjob, Brunette, Cowgirl Deepthroat, Footjob, Natural Tits, Shaved Pussy
: 48:55

: Ok, lets get it straight: you are an Internet person, you love VR porn movies and are not afraid of new technologies and solutions, so you must have invested in some cryptocurrencies. We are not even asking IF but HOW MUCH money have you allocated you do not have to tell us your numbers, do not worry, but we are simply trying to prove some point in here. In the latest VR porn movie of ours called the CryptoCUMency Deal, our male performer took an even greater risk and put some of his cash in an entirely new cryptocurrency, which, unfortunately, turned out to be unstable and he has lost a whole lot of his funds. Fortunately, our brunette VR porn goddess, Angela White, is a very empathic person and she is here to cheer him up and help him fight with his loss. Wearing your VR headset can let you become the guy spending an evening together with Angela, and even though you have not lose any of your money, you will get to be encouraged by our sexy VR porn star on the VRBangers.com we always provide you with only positive and never negative sides in any of our 6K UHD VR porn fantasies. This blowjob VR porn film will only be getting better with every minute, as since our performer has lost a whole lot of dollars, Mrs. White will do whatever it takes to help him with his depression and if she will have to choke on his cock to the very bottom of her throat, she is willing to do that sacrifice here and now. Wear your VR visor and take advantage of her beneficence inside of this VR porn scene as soon as possible the girl is waiting for you already, so the sooner you will get to her, the more of her support will be yours to have!

HD : 1440p
( VR): Samsung Gear VR
3D ( 3D): SideBySide
: MP4
: MPEG4 Video (H264) 2880x1440 60fps 18014kbps
: AAC 48000Hz stereo 317kbps
<div class="post-align" style="text-align: center;"> </div>
General
Complete name : VRBANGERS_cryptocumency_deal_HD_180x180_3dh.mp4
Format : MPEG-4
Format profile : Base Media / Version 2
Codec ID : mp42 (mp42/mp41)
File size : 6.27 GiB
Duration : 48 min 54 s
Overall bit rate mode : Variable
Overall bit rate : 18.3 Mb/s
Encoded date : UTC 2018-12-12 21:48:56
Tagged date : UTC 2018-12-12 21:52:31
TIM : 00:00:00:00
TSC : 60
TSZ : 1

Video
ID : 1
Format : AVC
Format/Info : Advanced Video Codec
Format profile : [email protected]
Format settings : CABAC / 4 Ref Frames
Format settings, CABAC : Yes
Format settings, ReFrames : 4 frames
Codec ID : avc1
Codec ID/Info : Advanced Video Coding
Duration : 48 min 54 s
Bit rate : 18.0 Mb/s
Width : 2 880 pixels
Height : 1 440 pixels
Display aspect ratio : 2.000
Frame rate mode : Constant
Frame rate : 60.000 FPS
Color space : YUV
Chroma subsampling : 4:2:0
Bit depth : 8 bits
Scan type : Progressive
Bits/(Pixel*Frame) : 0.072
Stream size : 6.15 GiB (98%)
Language : English
Encoded date : UTC 2018-12-12 21:48:57
Tagged date : UTC 2018-12-12 21:48:57
Color range : Limited
Color primaries : BT.709
Transfer characteristics : BT.709
Matrix coefficients : BT.709

Audio
ID : 2
Format : AAC
Format/Info : Advanced Audio Codec
Format profile : LC
Codec ID : mp4a-40-2
Duration : 48 min 54 s
Source duration : 48 min 54 s
Bit rate mode : Variable
Bit rate : 317 kb/s
Maximum bit rate : 422 kb/s
Channel(s) : 2 channels
Channel positions : Front: L R
Sampling rate : 48.0 kHz
Frame rate : 46.875 FPS (1024 SPF)
Compression mode : Lossy
Stream size : 111 MiB (2%)
Source stream size : 111 MiB (2%)
Language : English
Encoded date : UTC 2018-12-12 21:48:57
Tagged date : UTC 2018-12-12 21:48:57


! AdBlock , )))
 ·  , , FAQ-
:  [ 18--2019 23:56 ]

  

.torrent

.torrent 16 KB


: 6.27 GB
(hash) : ca135b7e062e7e376097709224bd5184ca458213
··
...

, [VRBangers.com] Angela White

S L
3D Virtual Reality (VR) / 3D & Virtual R ·· [VRBangers.com] Angela White (Laid Off / 27.04.2018) [2018 ., Big Dick, Big Tits, Blowjob, Brunette, Cowgirl, Curvy, Deepthroat, Kissing, Natural Tits, Reverse Cowgirl, Shaved Pussy, VR, 6K, 3072p] Galfimbul 105739313619.85 GB 2 0 1644490568

13:56

10--22

3D Virtual Reality (VR) / 3D & Virtual R ·%· [VRBangers.com] Angela White (CryptoCUMency Deal / 11.01.2019) [2019 ., Big Dick, Big Tits, Blowjob, Brunette, Cowgirl, Deepthroat, Footjob, Natural Tits, Shaved Pussy, 6K, 3072p] [Oculus Rift / Vive] Galfimbul 102796031159.57 GB 0 0 1571865823

00:23

24--19

3D Virtual Reality (VR) / 3D & Virtual R ·· [VRBangers.com] Angela White (Laid Off) [2018 ., POV, Blowjob, Deepthroat, Big Dick, Big Tits, Natural Tits, All sex, Virtual Reality, VR] [SideBySide, 960p] [Smartphone / Mobile] Galfimbul 30881178832.88 GB 0 0 1526096218

06:36

12--18

3D Virtual Reality (VR) / 3D & Virtual R ·· [VRBangers.com] Angela White (Laid Off) [2018 ., POV, Blowjob, Deepthroat, Big Dick, Big Tits, Natural Tits, All sex, Virtual Reality, VR] [SideBySide, 1440p] [Samsung Gear VR] Galfimbul 69274548016.45 GB 0 0 1526073830

00:23

12--18

3D Virtual Reality (VR) / 3D & Virtual R ·· [VRBangers.com] Angela White (Laid Off / 27.04.2018) [2018 ., Big Dick, Big Tits, Blowjob, Brunette, Curvy, Deepthroat, Natural Tits, Shaved Pussy, Virtual Reality, VR, 4K, 1920p] [Oculus] Galfimbul 71090218316.62 GB 0 0 1524864615

00:30

28--18

[VRBangers.com] Angela White . !

!