Скачать через торрент Черепашки-ниндзя 2 Teenage Mutant Ninja Turtles: Out of the Shadows Фильм бесплатно в хорошем качестве torrent

Скачивайте на UnionPeer.org фильмы через торрент без регистрации. Новинки кино в хорошем качестве через торрент. На UnionPeer.org можно скачать через торрент фильмы 2014 и 2015 годов. Самые новые фильмы.

Скачать торрент Черепашки-ниндзя 2 Teenage Mutant Ninja Turtles: Out of the Shadows бесплатно через .torrent фильм мультфильм сериал

Статистика раздачи
Размер:  7.37 GB   |    Зарегистрирован:  5 лет 4 месяца   |    .torrent скачан:  64 раза   |   
Раздают:  1  
 

Скачать Черепашки-ниндзя 2 / Teenage Mutant Ninja Turtles: Out of the Shadows (2016) BDRip-HEVC 1080p | Лицензия через torrent

 
 
Автор Сообщение

Galfimbul

avatar Galfimbul


Год выхода: 2016
Страна: США, Гонконг, Китай, Канада
Жанр: Фантастика, боевик, комедия, приключения
Продолжительность: 01:52:09
Перевод: Дублированный (Лицензия)

Режиссер: Дэйв Грин
В главных ролях: Меган Фокс, Уилл Арнетт, Лора Линни, Стивен Амелл, Ноэль Фишер, Джереми Ховард, Пит Пложек, Алан Ричсон, Тайлер Перри

Описание: Долгое время черепашки-ниндзя скрывались от людей в лабиринтах городской канализации. На протяжении нескольких лет учитель Сплинтер обучал их боевым искусствам и прививал им чувство справедливости. В один прекрасный момент им пришлось подняться наверх, чтобы спасти Нью-Йорк от Шредера, предводителя Клана Футов, захватившего власть в Нью-Йорке. Вместе с отважным репортером Эйприл и ее оператором Верном, бесстрашные воины смогли одержать победу и очистить любимый город от преступности.

Качество: BDRip 1080p
Видео: HEVC/H.265, 1920x800, ~8122 Kbps
Аудио 1: AC3, 6 ch, 640 Kbps - Дублированный
Аудио 2: AC3, 6 ch, 640 Kbps - Английский
Субтитры: Русские (форсированные, полные), английские
Общее
Уникальный идентификатор : 234913324876793524553802240635044250378 (0xB0BAA921C5C6764B981E48F84BB6430A)
Полное имя : F:РАЗДАЧИ. Черепашки-ниндзя 2 (1080p) HEVC.mkv
Формат : Matroska
Версия формата : Version 4 / Version 2
Размер файла : 7,37 Гбайт
Продолжительность : 1 ч. 52 м.
Общий поток : 9403 Кбит/сек
Дата кодирования : UTC 2016-09-15 15:43:25
Программа кодирования : mkvmerge v9.2.0 ('Photograph') 64bit
Библиотека кодирования : libebml v1.3.3 + libmatroska v1.4.4

Видео
Идентификатор : 1
Формат : HEVC
Формат/Информация : High Efficiency Video Coding
Профиль формата : Main@L4@Main
Идентификатор кодека : V_MPEGH/ISO/HEVC
Продолжительность : 1 ч. 52 м.
Битрейт : 8122 Кбит/сек
Ширина : 1920 пикселей
Высота : 800 пикселей
Соотношение сторон : 2,40:1
Режим частоты кадров : Постоянный
Частота кадров : 23,976 (24000/1001) кадра/сек
Цветовое пространство : YUV
Субдискретизация насыщенности : 4:2:0
Битовая глубина : 8 бит
Бит/(Пиксели*Кадры) : 0.221
Размер потока : 6,36 Гбайт (86%)
Библиотека кодирования : x265 2.0+54-e5ca9b210223:[Windows][GCC 5.3.1][64 bit] 8bit
Настройки программы : wpp / ctu=64 / min-cu-size=8 / max-tu-size=32 / tu-intra-depth=1 / tu-inter-depth=1 / me=3 / subme=5 / merange=57 / no-rect / no-amp / max-merge=5 / temporal-mvp / no-early-skip / rskip / rdpenalty=0 / no-tskip / no-tskip-fast / strong-intra-smoothing / no-lossless / no-cu-lossless / no-constrained-intra / no-fast-intra / open-gop / no-temporal-layers / interlace=0 / keyint=250 / min-keyint=23 / scenecut=40 / rc-lookahead=60 / lookahead-slices=0 / bframes=8 / bframe-bias=0 / b-adapt=2 / ref=5 / limit-refs=3 / no-limit-modes / weightp / weightb / aq-mode=3 / qg-size=64 / aq-strength=1.00 / cbqpoffs=0 / crqpoffs=0 / rd=3 / psy-rd=1.00 / rdoq-level=2 / psy-rdoq=1.00 / log2-max-poc-lsb=8 / no-rd-refine / signhide / deblock=-3:-3 / no-sao / no-sao-non-deblock / b-pyramid / no-cutree / no-intra-refresh / rc=2 / pass / bitrate=8120 / qcomp=0.70 / qpmin=0 / qpmax=69 / qpstep=4 / cplxblur=20.0 / qblur=0.5 / ipratio=1.40 / pbratio=1.30
Default : Да
Forced : Нет

Аудио #1
Идентификатор : 2
Формат : AC-3
Формат/Информация : Audio Coding 3
Идентификатор кодека : A_AC3
Продолжительность : 1 ч. 52 м.
Вид битрейта : Постоянный
Битрейт : 640 Кбит/сек
Каналы : 6 каналов
Расположение каналов : Front: L C R, Side: L R, LFE
Частота : 48,0 КГц
Частота кадров : 31,250 кадров/сек (1536 SPF)
Битовая глубина : 16 бит
Метод сжатия : С потерями
Размер потока : 513 Мбайт (7%)
Заголовок : Дублированный
Язык : Russian
ServiceKind/Strin : Complete Main
Default : Да
Forced : Нет

Аудио #2
Идентификатор : 3
Формат : AC-3
Формат/Информация : Audio Coding 3
Идентификатор кодека : A_AC3
Продолжительность : 1 ч. 52 м.
Вид битрейта : Постоянный
Битрейт : 640 Кбит/сек
Каналы : 6 каналов
Расположение каналов : Front: L C R, Side: L R, LFE
Частота : 48,0 КГц
Частота кадров : 31,250 кадров/сек (1536 SPF)
Битовая глубина : 16 бит
Метод сжатия : С потерями
Размер потока : 513 Мбайт (7%)
Заголовок : Original
Язык : English
ServiceKind/Strin : Complete Main
Default : Нет
Forced : Нет

Текст #1
Идентификатор : 4
Формат : UTF-8
Идентификатор кодека : S_TEXT/UTF8
Идентификатор кодека/Информация : UTF-8 Plain Text
Продолжительность : 1 ч. 41 м.
Битрейт : 0 бит/сек
ElementCount : 11
Размер потока : 371 байт (0%)
Заголовок : Forced
Язык : Russian
Default : Да
Forced : Нет

Текст #2
Идентификатор : 5
Формат : UTF-8
Идентификатор кодека : S_TEXT/UTF8
Идентификатор кодека/Информация : UTF-8 Plain Text
Продолжительность : 1 ч. 43 м.
Битрейт : 95 бит/сек
ElementCount : 1371
Размер потока : 72,5 Кбайт (0%)
Заголовок : Full
Язык : Russian
Default : Нет
Forced : Нет

Текст #3
Идентификатор : 6
Формат : UTF-8
Идентификатор кодека : S_TEXT/UTF8
Идентификатор кодека/Информация : UTF-8 Plain Text
Продолжительность : 1 ч. 42 м.
Битрейт : 65 бит/сек
ElementCount : 1508
Размер потока : 49,4 Кбайт (0%)
Заголовок : Full
Язык : English
Default : Нет
Forced : Нет

Текст #4
Идентификатор : 7
Формат : UTF-8
Идентификатор кодека : S_TEXT/UTF8
Идентификатор кодека/Информация : UTF-8 Plain Text
Продолжительность : 1 ч. 43 м.
Битрейт : 74 бит/сек
ElementCount : 1879
Размер потока : 56,7 Кбайт (0%)
Заголовок : SDH
Язык : English
Default : Нет
Forced : Нет

Меню
00:00:00.000 : en:00:00:00.000
00:05:55.564 : en:00:05:55.564
00:12:18.571 : en:00:12:18.571
00:18:53.507 : en:00:18:53.507
00:26:38.096 : en:00:26:38.096
00:33:14.492 : en:00:33:14.492
00:38:56.459 : en:00:38:56.459
00:44:11.190 : en:00:44:11.190
00:49:40.311 : en:00:49:40.311
00:55:40.629 : en:00:55:40.629
01:02:01.259 : en:01:02:01.259
01:04:51.971 : en:01:04:51.971
01:14:32.760 : en:01:14:32.760
01:21:18.415 : en:01:21:18.415
01:28:10.160 : en:01:28:10.160
01:36:58.229 : en:01:36:58.229
01:41:52.023 : en:01:41:52.023
01:46:20.874 : en:01:46:20.874

Источник http://BlaTor.org

Внимание! AdBlock блокирует показ скриншотов, все вопросы к разработчикам )))

Трекер:  [ 25-Янв-2019 15:30 ]

  

Скачать .torrent

Размер .torrent файла 37 KB


Размер: 7.37 GB
Хэш (hash) релиза: 8ca7ae25f10f8c49c36f319fcb3260b8e2ebbc84
Подписка на обновления:

Торренты, похожие на Черепашки-ниндзя 2 Teenage Mutant Ninja Turtles: Out of the Shadows скачать торрент

Форум Название Автор Размер S L Добавлен
Зарубежные фильмы 2016-2019 (Новинки зарубежного кино) ·· Черепашки-ниндзя 2 / Teenage Mutant Ninja Turtles: Out of the Shadows (Дэйв Грин / Dave Green) [2016, США, Фантастика, фэнтези, боевик, комедия, приключения, HDRip] AVO (Гаврилов) Galfimbul 15541780481.45 GB 0 0 1504456277

19:31

3-Сен-17

Зарубежные фильмы 2016-2019 (Новинки зарубежного кино) ·· Черепашки-ниндзя 2 / Teenage Mutant Ninja Turtles: Out of the Shadows (Дэйв Грин / Dave Green) [2016, США, Гонконг, Китай, Канада, фантастика, боевик, комедия, приключения, BDRip-AVC] AVO (Живов) Galfimbul 23103210122.15 GB 0 0 1497416472

08:01

14-Июн-17

Зарубежные фильмы 2016-2019 (Новинки зарубежного кино) ·· Черепашки-ниндзя 2 / Teenage Mutant Ninja Turtles: Out of the Shadows (Дэйв Грин / Dave Green) [2016, США, Гонконг, Китай, Канада, фантастика, боевик, комедия, приключения, HDRip-AVC] Dub + Original (Eng) + Sub (Rus, Eng) Galfimbul 15633540541.46 GB 0 0 1478350730

15:58

5-Ноя-16

3D Фильмы, кино ·· Черепашки-ниндзя 2 / Teenage Mutant Ninja Turtles: Out of the Shadows (Дэйв Грин / Dave Green) [2016, США, Гонконг, Китай, Канада, фантастика, боевик, комедия, приключения, Blu-ray disc 1080p] BD3D CEE Galfimbul 4822597632044.91 GB 0 0 1475518130

21:08

3-Окт-16

Зарубежные фильмы до 2016 ·· Черепашки-ниндзя 2 / Teenage Mutant Ninja Turtles: Out of the Shadows (Дэйв Грин / Dave Green) [2016, США, Гонконг, Китай, Канада, фантастика, боевик, комедия, приключения, Blu-ray disc 1080p] [CEE] Dub + Sub Rus, Eng + Original Eng Galfimbul 4746326338644.2 GB 0 0 1473966688

22:11

15-Сен-16

Трейлеры и дополнительные материалы ·· Черепашки-Ниндзя 2 / Teenage Mutant Ninja Turtles: Out of the Shadows (Дэйв Грин / Dave Green) [2016, Фантастика | Боевик | Комедия | Приключения, BDRip 720p] дополнительные материалы Galfimbul 15101431741.41 GB 0 0 1473693531

18:18

12-Сен-16

Зарубежные фильмы 2016-2019 (Новинки зарубежного кино) ·· Черепашки-ниндзя 2 / Teenage Mutant Ninja Turtles: Out of the Shadows (Дэйв Грин / Dave Green) [2016, США, Фантастика, боевик, комедия, приключения, BDRip 720p] iTunes Galfimbul 64401251236 GB 0 0 1473334927

14:42

8-Сен-16

Зарубежные фильмы 2016-2019 (Новинки зарубежного кино) ·· Черепашки-ниндзя 2 / Teenage Mutant Ninja Turtles: Out of the Shadows (Дэйв Грин / Dave Green) [2016, США, Фантастика, боевик, комедия, приключения, HDRip] iTunes Galfimbul 15642337281.46 GB 0 0 1473313361

08:42

8-Сен-16

Зарубежные фильмы 2016-2019 (Новинки зарубежного кино) ·· Черепашки-ниндзя 2 / Teenage Mutant Ninja Turtles: Out of the Shadows (Дэйв Грин / Dave Green) [2016, США, Фантастика, боевик, комедия, приключения, HDRip] iTunes Galfimbul 23414927362.18 GB 0 0 1473313356

08:42

8-Сен-16

Зарубежные фильмы 2016-2019 (Новинки зарубежного кино) ·· Черепашки-ниндзя 2 / Teenage Mutant Ninja Turtles: Out of the Shadows (Дэйв Грин / Dave Green) [2016, США, Фантастика, боевик, комедия, приключения, WEB-DLRip] Dub (iTunes) Galfimbul 15647723521.46 GB 0 0 1473172545

17:35

6-Сен-16

Зарубежные фильмы до 2016 ·· Черепашки-ниндзя 2 / Teenage Mutant Ninja Turtles: Out of the Shadows (Дэйв Грин / Dave Green) [2016, США, Гонконг, Китай, Канада, Фантастика, фэнтези, боевик, комедия, приключения, WEB-DL 1080p] Dub (iTunes Russia) + Sub Rus + Original Eng Galfimbul 42833067423.99 GB 1 1 1472664597

20:29

31-Авг-16

Зарубежные фильмы 2016-2019 (Новинки зарубежного кино) ·· Черепашки-ниндзя 2 / Teenage Mutant Ninja Turtles: Out of the Shadows (Дэйв Грин / Dave Green) [2016, США, Гонконг, Китай, Канада, фантастика, боевик, комедия, приключения, WEB-DLRip] Dub + Sub Rus + Original Eng Galfimbul 23436855162.18 GB 0 0 1472646478

15:27

31-Авг-16

Зарубежные фильмы 2016-2019 (Новинки зарубежного кино) ·· Черепашки-ниндзя 2 / Teenage Mutant Ninja Turtles: Out of the Shadows (Дэйв Грин / Dave Green) [2016, США, Гонконг, Китай, Канада, фантастика, боевик, комедия, приключения, WEB-DLRip] Dub Galfimbul 781195264745 MB 0 0 1472621182

08:26

31-Авг-16

Зарубежные фильмы до 2016 ·· Черепашки-ниндзя 2 / Teenage Mutant Ninja Turtles: Out of the Shadows (Дэйв Грин / Dave Green) [2016, США, Гонконг, Китай, Канада, фантастика, фэнтези, боевик, комедия, приключения, WEB-DL 720p] Dub (iTunes Russia) + Sub Rus + Original Eng Galfimbul 38457240743.58 GB 0 0 1472588666

23:24

30-Авг-16

Зарубежные фильмы 2016-2019 (Новинки зарубежного кино) ·· Черепашки-ниндзя 2 / Teenage Mutant Ninja Turtles: Out of the Shadows (Дэйв Грин) [2016, фантастика, фэнтези, боевик, комедия, приключения, WEB-DL 1080p] iTunes Galfimbul 42833067423.99 GB 0 0 1472510719

01:45

30-Авг-16

Зарубежные фильмы 2016-2019 (Новинки зарубежного кино) ·· Черепашки-ниндзя 2 / Teenage Mutant Ninja Turtles: Out of the Shadows (Дэйв Грин) [2016, фантастика, фэнтези, боевик, комедия, приключения, WEB-DLRip] iTunes Galfimbul 781732408746 MB 0 0 1472508600

01:10

30-Авг-16

Зарубежные фильмы 2016-2019 (Новинки зарубежного кино) ·· Черепашки-ниндзя 2 / Teenage Mutant Ninja Turtles: Out of the Shadows (Дэйв Грин) [2016, фантастика, фэнтези, боевик, комедия, приключения, WEB-DL 720p] iTunes Galfimbul 38457240743.58 GB 0 0 1472499863

22:44

29-Авг-16

Зарубежные фильмы 2016-2019 (Новинки зарубежного кино) ·· Черепашки-ниндзя 2 / Teenage Mutant Ninja Turtles: Out of the Shadows (Дэйв Грин) [2016, фантастика, фэнтези, боевик, комедия, приключения, WEB-DLRip] iTunes Galfimbul 15693527361.46 GB 0 0 1464923474

06:11

3-Июн-16

3D Фильмы, кино ·· Черепашки-ниндзя 2 в 3Д / Teenage Mutant Ninja Turtles: Out of the Shadows 3D (Дэйв Грин / Dave Green) [2016, Фантастика, Боевик, Комедия, Приключения, BDrip, 1080p] OverUnder / Вертикальная стереопара Galfimbul 2260299703721.05 GB 0 0 1481490401

00:06

12-Дек-16

Еще никто не оставлял запись к записи скачать торрент Черепашки-ниндзя 2 Teenage Mutant Ninja Turtles: Out of the Shadows . Будь первым!

!Обратная связь