Скачать через торрент Голем: Начало The Golem Фильм бесплатно в хорошем качестве torrent

Скачивайте на UnionPeer.org фильмы через торрент без регистрации. Новинки кино в хорошем качестве через торрент. На UnionPeer.org можно скачать через торрент фильмы 2014 и 2015 годов. Самые новые фильмы.

Скачать торрент Голем: Начало The Golem бесплатно через .torrent фильм мультфильм сериал

Статистика раздачи
Размер:  1.33 GB   |    Зарегистрирован:  1 год 5 месяцев   |    .torrent скачан:  65 раз   |   
Раздают:  1  
 

Скачать Голем: Начало / The Golem (2018) WEBRip | L2 через torrent

 
Timeweb Many GEOs Sprinthost
загрузка...
 
Автор Сообщение

Galfimbul ghost

avatar Galfimbul ghost


Голем: Начало /The Golem

Год выхода: 2018
Жанр: Ужасы
Режиссер: Дорон Пас, Йоав Пас
В ролях: Хани Фюрстенберг, Ишай Голан, Брини Фюрстенберг, Эди Кветнер, Ленни Равич, Ольга Сафронова
О фильме:
Литва, 1673 год. Селянка Ханна уже семь лет скорбит об умершем сыне и находит утешение в изучении священных еврейских писаний. Когда её деревне начинает угрожать опасность вторжения, Ханна решает провести магический ритуал и создаёт чудовище - голема. Последствия этого неоднозначного поступка коснутся всех местных жителей.



Страна: Израиль
Продолжительность: 01:35:16
Перевод: Любительский (двухголосый закадровый) | HiWay Grope

Файл
Кодек: XviD
Качество: WEBRip
Видео: 720x304, 23.976 fps, ~1799 kbps, 0.34 bit/pixel
Звук:
Аудио rus: AC3, 48 kHz, 2 ch, 192 Kbps
Субтитры: отсутствуют

Реклама: присутствует

Семпл
General
Complete name : D:The.Golem.2018.WEBRip.HiWayGropeThe.Golem.2018.WEBRip.HiWayGrope.avi
Format : AVI
Format/Info : Audio Video Interleave
Format profile : OpenDML
File size : 1.33 GiB
Duration : 1 h 35 min
Overall bit rate : 1 998 kb/s
Writing application : Lavf57.71.100

Video
ID : 0
Format : MPEG-4 Visual
Format profile : Advanced Simple@L5
Format settings, BVOP : No
Format settings, QPel : No
Format settings, GMC : No warppoints
Format settings, Matrix : Default (H.263)
Codec ID : XVID
Codec ID/Hint : XviD
Duration : 1 h 35 min
Bit rate : 1 794 kb/s
Width : 720 pixels
Height : 304 pixels
Display aspect ratio : 2.35:1
Frame rate : 23.976 (24000/1001) FPS
Color space : YUV
Chroma subsampling : 4:2:0
Bit depth : 8 bits
Scan type : Progressive
Compression mode : Lossy
Bits/(Pixel*Frame) : 0.342
Stream size : 1.19 GiB (90%)
Writing library : XviD 67

Audio
ID : 1
Format : AC-3
Format/Info : Audio Coding 3
Commercial name : Dolby Digital
Codec ID : 2000
Duration : 1 h 35 min
Bit rate mode : Constant
Bit rate : 192 kb/s
Channel(s) : 2 channels
Channel layout : L R
Sampling rate : 48.0 kHz
Frame rate : 31.250 FPS (1536 SPF)
Bit depth : 16 bits
Compression mode : Lossy
Stream size : 131 MiB (10%)
Alignment : Aligned on interleaves
Interleave, duration : 32 ms (0.77 video frame)
Service kind : Complete Main
Релиз от: HiWay Grope
Источник http://BlaTor.org

Внимание! AdBlock блокирует показ скриншотов, все вопросы к разработчикам )))
Трекер:  [ 09-Фев-2019 10:30 ]

  

Скачать .torrent

Размер .torrent файла 14 KB


Размер: 1.33 GB
Хэш (hash) релиза: 8fc56afc73bde469a43330e5918baf642186496d
Подписка на обновления:

Торренты, похожие на Голем: Начало The Golem скачать торрент

Форум Название Автор Размер S L Добавлен
Зарубежные фильмы 2016-2019 (Новинки зарубежного кино) ·%· Голем: Начало / The Golem (2018) BDRip от ExKinoRay | iTunes Galfimbul ghost 784689152748 MB 0 0 1570602620

09:30

9-Окт-19

Зарубежные фильмы 2016-2019 (Новинки зарубежного кино) ·%· Голем: Начало / The Golem (2018) BDRip 720p | iTunes Galfimbul ghost 41803089433.89 GB 0 0 1570188008

14:20

4-Окт-19

Зарубежные фильмы 2016-2019 (Новинки зарубежного кино) ·%· Голем: Начало / The Golem (2018) BDRip 1080p от селезень | iTunes Galfimbul ghost 76688174197.14 GB 0 0 1570132808

23:00

3-Окт-19

Зарубежные фильмы 2016-2019 (Новинки зарубежного кино) ·%· Голем: Начало / The Golem (2018) BDRemux 1080p от селезень | iTunes Galfimbul ghost 1529953465314.25 GB 0 0 1570108807

16:20

3-Окт-19

Зарубежные фильмы 2016-2019 (Новинки зарубежного кино) ·%· Голем: Начало / The Golem (2018) WEB-DLRip от Portablius | HDRezka Studio Galfimbul ghost 779102208743 MB 0 0 1553581808

09:30

26-Мар-19

Зарубежные фильмы 2016-2019 (Новинки зарубежного кино) ·%· Голем: Начало / The Golem (2018) WEB-DL 1080p от ExKinoRay | HDRezka Studio Galfimbul ghost 37019832693.45 GB 0 0 1553491849

08:30

25-Мар-19

Зарубежные фильмы 2016-2019 (Новинки зарубежного кино) ·%· Голем: Начало / The Golem (2018) WEB-DLRip от ExKinoRay | HDRezka Studio Galfimbul ghost 14724935681.37 GB 0 0 1553490637

08:10

25-Мар-19

Зарубежные фильмы 2016-2019 (Новинки зарубежного кино) ·%· Голем: Начало / The Golem (2018) WEB-DLRip-AVC от ExKinoRay | HDRezka Studio Galfimbul ghost 14686527771.37 GB 0 0 1553489433

07:50

25-Мар-19

Зарубежные фильмы 2016-2019 (Новинки зарубежного кино) ·%· Голем: Начало / The Golem (2018) WEBRip 1080p | LakeFilms Galfimbul ghost 17147463921.6 GB 0 0 1551245513

08:31

27-Фев-19

Зарубежные фильмы 2016-2019 (Новинки зарубежного кино) ·%· Голем: Начало / The Golem (2018) WEBRip | LakeFilms Galfimbul ghost 788511086752 MB 0 0 1551245439

08:30

27-Фев-19

Зарубежные фильмы 2016-2019 (Новинки зарубежного кино) ·%· Голем: Начало / The Golem (2018) WEBRip 720p | L2 Galfimbul ghost 22365885322.08 GB 0 0 1549697476

10:31

9-Фев-19

Superjob
dpd RU

Еще никто не оставлял запись к записи скачать торрент Голем: Начало The Golem . Будь первым!

!Обратная связь