Скачать через торрент Последняя битва Конец пути Фильм бесплатно в хорошем качестве torrent

Скачивайте на UnionPeer.org фильмы через торрент без регистрации. Новинки кино в хорошем качестве через торрент. На UnionPeer.org можно скачать через торрент фильмы 2014 и 2015 годов. Самые новые фильмы.

Скачать торрент Последняя битва Конец пути бесплатно через .torrent фильм мультфильм сериал

Статистика раздачи
Размер:  4.34 GB   |    Зарегистрирован:  11 дней   |    .torrent скачан:  45 раз   |   
Раздают:  1  
   
загрузка...
 
Автор Сообщение

Galfimbul

avatar Galfimbul


Последняя битва / Journey's End

Год выхода: 2017
Жанр: Драма, военный
Страна: Великобритания
Перевод: Дублированный | iTunes
Продолжительность: 01:47:44
Режиссер: Сол Дибб
В ролях: Сэм Клафлин, Эйса Баттерфилд, Пол Беттани, Стивен Грэм, Тоби Джонс, Том Стёрридж, Алаис Лоусон, Энди Гэтергуд, Джек Риддифорд, Адам Колборн и др.

О фильме: Весна 1918 года. Идёт уже четвертый год Первой мировой войны. Молодой и наивный лейтенант Рейли присоединяется на фронте к своему кумиру детства и другу семьи, капитану Стэнхоупу, не подозревая, как тот изменился за годы службы. Какого же было его удивление, когда вместо смелого и решительного человека, он увидел морально раздавленного мужчину, не способного повести за собой своих солдат. Лейтенант Рейли понимает, что для того, чтобы победить и выжить, необходимо взять контроль над ситуацией на себя. Получив известие о том, что войска противника уже близко, солдаты готовятся к неизбежному… К самой масштабной атаке врага за последнее время, намеченной на четверг, 21 марта 1918 года. Отсчёт пошёл…



Файл
Качество: BDRip 720p
Видео: MPEG-4 AVC, 1280x534, 4950 kbps, 24,000 fps
Звук#1: русский, AC3, 5.1 ch, 48 kHz, 384 kbps | iTunes
Звук#2: английский, AC3, 5.1 ch, 48 kHz, 448 kbps | оригинал
Субтитры: русские (форс., полные), английские (полные)
General
Уникальный идентификатор : 241621284159340290882668606386645233362 (0xB5C6910F14E443A99A0E05B32E53EED2)
Полное имя : E:TorrentJourneysEndBDRip720p.mkv
Формат : Matroska
Версия формата : Version 4 / Version 2
Размер файла : 4.34 GiB
Продолжительность : 1 h 47 min
Общий поток : 5 771 kb/s
Дата кодирования : UTC 2019-02-10 22:20:19
Программа кодирования : mkvmerge v9.5.0 ('Quiet Fire') 64bit
Библиотека кодирования : libebml v1.3.4 + libmatroska v1.4.5

Video
Идентификатор : 1
Формат : AVC
Формат/Информация : Advanced Video Codec
Профиль формата : High@L4.1
Настройки формата : CABAC / 12 Ref Frames
Параметр CABAC формата : Yes
Параметр RefFrames формата : 12 frames
Идентификатор кодека : V_MPEG4/ISO/AVC
Продолжительность : 1 h 47 min
Битрейт : 4 950 kb/s
Ширина : 1 280 pixels
Высота : 534 pixels
Соотношение сторон : 2.40:1
Режим частоты кадров : Constant
Частота кадров : 24.000 FPS
Цветовое пространство : YUV
Субдискретизация насыщенности : 4:2:0
Битовая глубина : 8 bits
Тип развёртки : Progressive
Бит/(Пиксели*Кадры) : 0.302
Размер потока : 3.72 GiB (86%)
Библиотека кодирования : x264 core 157 r2935 545de2f
Настройки программы : cabac=1 / ref=12 / deblock=1:-2:-2 / analyse=0x3:0x133 / me=umh / subme=11 / psy=1 / psy_rd=1.00:0.00 / mixed_ref=1 / me_range=32 / chroma_me=1 / trellis=2 / 8x8dct=1 / cqm=0 / deadzone=21,11 / fast_pskip=0 / chroma_qp_offset=-2 / threads=5 / lookahead_threads=1 / sliced_threads=0 / nr=0 / decimate=0 / interlaced=0 / bluray_compat=0 / constrained_intra=0 / bframes=12 / b_pyramid=2 / b_adapt=2 / b_bias=0 / direct=3 / weightb=1 / open_gop=0 / weightp=2 / keyint=240 / keyint_min=24 / scenecut=40 / intra_refresh=0 / rc_lookahead=120 / rc=2pass / mbtree=0 / bitrate=4950 / ratetol=1.0 / qcomp=0.70 / qpmin=0 / qpmax=69 / qpstep=4 / cplxblur=20.0 / qblur=0.5 / vbv_maxrate=62500 / vbv_bufsize=78125 / nal_hrd=none / filler=0 / ip_ratio=1.40 / pb_ratio=1.30 / aq=2:0.80
Язык : English
Default : Yes
Forced : No
Цветовой диапазон : Limited
Основные цвета : BT.709
Характеристики трансфера : BT.709
Коэффициенты матрицы : BT.709

Audio #1
Идентификатор : 2
Формат : AC-3
Формат/Информация : Audio Coding 3
Идентификатор кодека : A_AC3
Продолжительность : 1 h 47 min
Вид битрейта : Constant
Битрейт : 384 kb/s
Каналы : 6 channels
Расположение каналов : Front: L C R, Side: L R, LFE
Частота : 48.0 kHz
Частота кадров : 31.250 FPS (1536 SPF)
Битовая глубина : 16 bits
Метод сжатия : Lossy
Размер потока : 296 MiB (7%)
Язык : Russian
Default : Yes
Forced : No

Audio #2
Идентификатор : 3
Формат : AC-3
Формат/Информация : Audio Coding 3
Идентификатор кодека : A_AC3
Продолжительность : 1 h 47 min
Вид битрейта : Constant
Битрейт : 448 kb/s
Каналы : 6 channels
Расположение каналов : Front: L C R, Side: L R, LFE
Частота : 48.0 kHz
Частота кадров : 31.250 FPS (1536 SPF)
Битовая глубина : 16 bits
Метод сжатия : Lossy
Размер потока : 345 MiB (8%)
Язык : English
Default : No
Forced : No

Text #1
Идентификатор : 4
Формат : UTF-8
Идентификатор кодека : S_TEXT/UTF8
Идентификатор кодека/Информация : UTF-8 Plain Text
Продолжительность : 1 h 40 min
Битрейт : 1 b/s
ElementCount : 23
Размер потока : 1.29 KiB (0%)
Заголовок : rusForced
Язык : Russian
Default : Yes
Forced : Yes

Text #2
Идентификатор : 5
Формат : UTF-8
Идентификатор кодека : S_TEXT/UTF8
Идентификатор кодека/Информация : UTF-8 Plain Text
Продолжительность : 1 h 40 min
Битрейт : 74 b/s
ElementCount : 1110
Размер потока : 55.0 KiB (0%)
Заголовок : rusFull
Язык : Russian
Default : No
Forced : No

Text #3
Идентификатор : 6
Формат : UTF-8
Идентификатор кодека : S_TEXT/UTF8
Идентификатор кодека/Информация : UTF-8 Plain Text
Продолжительность : 1 h 37 min
Битрейт : 46 b/s
ElementCount : 1097
Размер потока : 33.3 KiB (0%)
Заголовок : engFull
Язык : English
Default : No
Forced : No

Menu
00:00:00.000 : :Chapter 01
00:07:56.708 : :Chapter 02
00:16:49.250 : :Chapter 03
00:26:05.500 : :Chapter 04
00:34:21.125 : :Chapter 05
00:43:53.541 : :Chapter 06
00:51:38.208 : :Chapter 07
00:59:18.208 : :Chapter 08
01:08:51.041 : :Chapter 09
01:15:47.500 : :Chapter 10
01:24:45.250 : :Chapter 11
01:32:01.333 : :Chapter 12
Релиз от:
Источник http://BlaTor.org

Трекер:  [ 11-Фев-2019 15:20 ]

  

Скачать .torrent

Размер .torrent файла 11 KB


Размер: 4.34 GB
Хэш (hash) релиза: 962b41aa911db43ae00c9cf7dd9c88ee33d1235a
Подписка на обновления:

Торренты, похожие на Последняя битва Конец пути скачать торрент

Форум Название Автор Размер S L Добавлен
Зарубежные фильмы 2016-2018 (Новинки зарубежного кино) ·%· Последняя битва / Конец пути / Journey's End (2017) BDRip-AVC от OlLanDGroup | D, P | iTunes Galfimbul 16673765201.55 GB 0 0 1550755221

16:20

21-Фев-19

Зарубежные фильмы 2016-2018 (Новинки зарубежного кино) ·%· Последняя битва / Конец пути / Journey's End (2017) BDRip от MegaPeer | iTunes Galfimbul 15167770501.41 GB 0 0 1549953009

09:30

12-Фев-19

Зарубежные фильмы 2016-2018 (Новинки зарубежного кино) ·%· Последняя битва / Конец пути / Journey's End (2017) BDRip от MegaPeer | iTunes Galfimbul 22912776032.13 GB 0 0 1549900809

19:00

11-Фев-19

Зарубежные фильмы 2016-2018 (Новинки зарубежного кино) ·%· Последняя битва / Конец пути / Journey's End (2017) BDRip | iTunes Galfimbul 15619534041.45 GB 0 0 1549887636

15:20

11-Фев-19

Зарубежные фильмы 2016-2018 (Новинки зарубежного кино) ·%· Последняя битва / Конец пути / Journey's End (2017) BDRip 1080p | iTunes Galfimbul 83222454717.75 GB 0 0 1549887614

15:20

11-Фев-19

Еще никто не оставлял запись к записи скачать торрент Последняя битва Конец пути . Будь первым!

!Обратная связь