Скачать через торрент Последняя битва Конец пути Фильм бесплатно в хорошем качестве torrent

Скачивайте на UnionPeer.org фильмы через торрент без регистрации. Новинки кино в хорошем качестве через торрент. На UnionPeer.org можно скачать через торрент фильмы 2014 и 2015 годов. Самые новые фильмы.

Скачать торрент Последняя битва Конец пути бесплатно через .torrent фильм мультфильм сериал

Статистика раздачи
Размер:  1.45 GB   |    Зарегистрирован:  11 дней   |    .torrent скачан:  49 раз   |   
Раздают:  1  
   
загрузка...
 
Автор Сообщение

Galfimbul

avatar Galfimbul


Последняя битва / Journey's End

Год выхода: 2017
Жанр: Драма, военный
Страна: Великобритания
Перевод: Дублированный | iTunes
Продолжительность: 01:47:44
Режиссер: Сол Дибб
В ролях: Сэм Клафлин, Эйса Баттерфилд, Пол Беттани, Стивен Грэм, Тоби Джонс, Том Стёрридж, Алаис Лоусон, Энди Гэтергуд, Джек Риддифорд, Адам Колборн и др.

О фильме: Весна 1918 года. Идёт уже четвертый год Первой мировой войны. Молодой и наивный лейтенант Рейли присоединяется на фронте к своему кумиру детства и другу семьи, капитану Стэнхоупу, не подозревая, как тот изменился за годы службы. Какого же было его удивление, когда вместо смелого и решительного человека, он увидел морально раздавленного мужчину, не способного повести за собой своих солдат. Лейтенант Рейли понимает, что для того, чтобы победить и выжить, необходимо взять контроль над ситуацией на себя. Получив известие о том, что войска противника уже близко, солдаты готовятся к неизбежному… К самой масштабной атаке врага за последнее время, намеченной на четверг, 21 марта 1918 года. Отсчёт пошёл…



Файл
Формат: AVI
Качество: BDRip | Journeys.End.2017.REMUX
Видео: Xvid 73, 720x304, ~1537 kbps, 24,000 fps
Звук: русский, AC3, 5.1 ch, 48 kHz, 384 kbps | iTunes
Субтитры: русские (форс. вшитые)
General
Полное имя : E:TorrentJourneysEndBDRip.avi
Формат : AVI
Формат/Информация : Audio Video Interleave
Профиль формата : OpenDML
Размер файла : 1.45 GiB
Продолжительность : 1 h 47 min
Общий поток : 1 933 kb/s
Программа кодирования : XviD4PSP 6.0 / 54.27.101

Video
Идентификатор : 0
Формат : MPEG-4 Visual
Профиль формата : Advanced Simple@L5
Настройки формата : BVOP2 / Custom Matrix
Параметр BVOP формата : 2
Параметр QPel формата : No
Параметр GMC формата : No warppoints
Параметр матрицы формата : Custom
Идентификатор кодека : XVID
Идентификатор кодека/Подсказка : XviD
Продолжительность : 1 h 47 min
Битрейт : 1 537 kb/s
Ширина : 720 pixels
Высота : 304 pixels
Соотношение сторон : 2.35:1
Частота кадров : 24.000 FPS
Цветовое пространство : YUV
Субдискретизация насыщенности : 4:2:0
Битовая глубина : 8 bits
Тип развёртки : Progressive
Метод сжатия : Lossy
Бит/(Пиксели*Кадры) : 0.293
Размер потока : 1.16 GiB (80%)
Библиотека кодирования : XviD 73

Audio
Идентификатор : 1
Формат : AC-3
Формат/Информация : Audio Coding 3
Идентификатор кодека : 2000
Продолжительность : 1 h 47 min
Вид битрейта : Constant
Битрейт : 384 kb/s
Каналы : 6 channels
Расположение каналов : Front: L C R, Side: L R, LFE
Частота : 48.0 kHz
Частота кадров : 31.250 FPS (1536 SPF)
Битовая глубина : 16 bits
Метод сжатия : Lossy
Размер потока : 296 MiB (20%)
Выравнивание : Aligned on interleaves
Продолжительность промежутка : 32 ms (0.77 video frame)
Релиз от:
Источник http://BlaTor.org

Трекер:  [ 11-Фев-2019 15:20 ]

  

Скачать .torrent

Размер .torrent файла 15 KB


Размер: 1.45 GB
Хэш (hash) релиза: 12eb828b00e2823c93b003d4d2d841f6b99c429f
Подписка на обновления:

Торренты, похожие на Последняя битва Конец пути скачать торрент

Форум Название Автор Размер S L Добавлен
Зарубежные фильмы 2016-2018 (Новинки зарубежного кино) ·%· Последняя битва / Конец пути / Journey's End (2017) BDRip-AVC от OlLanDGroup | D, P | iTunes Galfimbul 16673765201.55 GB 0 0 1550755221

16:20

21-Фев-19

Зарубежные фильмы 2016-2018 (Новинки зарубежного кино) ·%· Последняя битва / Конец пути / Journey's End (2017) BDRip от MegaPeer | iTunes Galfimbul 15167770501.41 GB 0 0 1549953009

09:30

12-Фев-19

Зарубежные фильмы 2016-2018 (Новинки зарубежного кино) ·%· Последняя битва / Конец пути / Journey's End (2017) BDRip от MegaPeer | iTunes Galfimbul 22912776032.13 GB 0 0 1549900809

19:00

11-Фев-19

Зарубежные фильмы 2016-2018 (Новинки зарубежного кино) ·%· Последняя битва / Конец пути / Journey's End (2017) BDRip 720p | iTunes Galfimbul 46634440164.34 GB 0 0 1549887625

15:20

11-Фев-19

Зарубежные фильмы 2016-2018 (Новинки зарубежного кино) ·%· Последняя битва / Конец пути / Journey's End (2017) BDRip 1080p | iTunes Galfimbul 83222454717.75 GB 0 0 1549887614

15:20

11-Фев-19

Еще никто не оставлял запись к записи скачать торрент Последняя битва Конец пути . Будь первым!

!Обратная связь