Скачать через торрент Ральф против интернета Ralph Breaks the Internet Фильм бесплатно в хорошем качестве torrent

Скачивайте на UnionPeer.org фильмы через торрент без регистрации. Новинки кино в хорошем качестве через торрент. На UnionPeer.org можно скачать через торрент фильмы 2014 и 2015 годов. Самые новые фильмы.

Скачать торрент Ральф против интернета Ralph Breaks the Internet бесплатно через .torrent фильм мультфильм сериал

Статистика раздачи
Размер:  5.42 GB   |    Зарегистрирован:  3 месяца 9 дней   |    .torrent скачан:  130 раз   |   
Раздают:  2  
   
загрузка...
 
Автор Сообщение

Galfimbul

avatar Galfimbul


Ральф против интернета /Ralph Breaks the Internet

Год выхода: 2018
Жанр: Мультфильм, фэнтези, комедия, приключения, семейный, полнометражный
Режиссер: Фил Джонстон, Рич Мур
В ролях: Джон С. Райлли, Сара Силверман, Галь Гадот, Тараджи П. Хенсон, Джек МакБрайер, Джейн Линч, Алан Тьюдик, Альфред Молина, Эд О`Нил, Шон Джамброун



О фильме: На этот раз Ральф и Ванилопа фон Кекс выйдут за пределы зала игровых автоматов и отправятся покорять бескрайние просторы интернета, который может и не выдержать сокрушительного обаяния громилы.

Страна: США
Студия: Walt Disney Animation Studios, Walt Disney Pictures
Продолжительность: 01:52:31
Перевод: Дублированный | iTunes

Качество: BDRip 720p
Видео: MPEG-4 AVC, 1280x536, 5000 Kbit/s, 23.976 fps
Звук:
Аудио #01: 48 kHz, AC3, 5.1, 384 Kbps | iTunes | RUS |
Аудио #02: 48 kHz, DTS, 5.1, 1510 Kbps | Оригинал | ENG |
Субтитры: Русские (Forced, full), английские

General
Unique ID : 261747177069279952862445162934013506168 (0xC4EAAC30ABB0CA61478D29EF39C3B278)
Complete name : D:Video111Ralph.Breaks.The.Internet.BDRip.720p.seleZen.mkv
Format : Matroska
Format version : Version 4
File size : 5.42 GiB
Duration : 1 h 52 min
Overall bit rate : 6 896 kb/s
Movie name : Ralph Breaks The Internet 2018 from селезень
Encoded date : UTC 2019-02-16 09:43:15
Writing application : mkvmerge v29.0.0 ('Like It Or Not') 64-bit
Writing library : libebml v1.3.6 + libmatroska v1.4.9

Video
ID : 1
Format : AVC
Format/Info : Advanced Video Codec
Format profile : High@L4.1
Format settings : CABAC / 12 Ref Frames
Format settings, CABAC : Yes
Format settings, ReFrames : 12 frames
Codec ID : V_MPEG4/ISO/AVC
Duration : 1 h 52 min
Bit rate : 5 000 kb/s
Width : 1 280 pixels
Height : 536 pixels
Display aspect ratio : 2.40:1
Frame rate mode : Constant
Frame rate : 23.976 (24000/1001) FPS
Color space : YUV
Chroma subsampling : 4:2:0
Bit depth : 8 bits
Scan type : Progressive
Bits/(Pixel*Frame) : 0.304
Stream size : 3.93 GiB (73%)
Title : HDC
Writing library : x264 core 148 r2665kMod a01e339
Encoding settings : cabac=1 / ref=12 / deblock=1:-1:-1 / analyse=0x3:0x133 / me=umh / subme=11 / psy=1 / fade_compensate=0.00 / psy_rd=0.70:0.00 / mixed_ref=1 / me_range=32 / chroma_me=1 / trellis=2 / 8x8dct=1 / cqm=0 / deadzone=21,11 / fast_pskip=0 / chroma_qp_offset=-2 / threads=17 / lookahead_threads=2 / sliced_threads=0 / nr=0 / decimate=0 / interlaced=0 / bluray_compat=0 / constrained_intra=0 / fgo=0 / bframes=8 / b_pyramid=2 / b_adapt=2 / b_bias=0 / direct=3 / weightb=1 / open_gop=0 / weightp=2 / keyint=240 / keyint_min=24 / scenecut=40 / intra_refresh=0 / rc=2pass / mbtree=0 / bitrate=5000 / ratetol=1.0 / qcomp=0.70 / qpmin=0 / qpmax=69 / qpstep=4 / cplxblur=20.0 / qblur=0.5 / ip_ratio=1.10 / pb_ratio=1.20 / aq=3:1.10
Language : English
Default : Yes
Forced : No

Audio #1
ID : 2
Format : AC-3
Format/Info : Audio Coding 3
Commercial name : Dolby Digital
Codec ID : A_AC3
Duration : 1 h 52 min
Bit rate mode : Constant
Bit rate : 384 kb/s
Channel(s) : 6 channels
Channel layout : L R C LFE Ls Rs
Sampling rate : 48.0 kHz
Frame rate : 31.250 FPS (1536 SPF)
Bit depth : 16 bits
Compression mode : Lossy
Stream size : 309 MiB (6%)
Title : iTunes
Language : Russian
Service kind : Complete Main
Default : Yes
Forced : Yes

Audio #2
ID : 3
Format : DTS
Format/Info : Digital Theater Systems
Codec ID : A_DTS
Duration : 1 h 52 min
Bit rate mode : Constant
Bit rate : 1 509 kb/s
Channel(s) : 6 channels
Channel layout : C L R Ls Rs LFE
Sampling rate : 48.0 kHz
Frame rate : 93.750 FPS (512 SPF)
Bit depth : 24 bits
Compression mode : Lossy
Stream size : 1.19 GiB (22%)
Title : Original
Language : English
Default : No
Forced : No

Text #1
ID : 4
Format : UTF-8
Codec ID : S_TEXT/UTF8
Codec ID/Info : UTF-8 Plain Text
Duration : 1 h 41 min
Bit rate : 2 b/s
Count of elements : 46
Stream size : 1.56 KiB (0%)
Title : Forced
Language : Russian
Default : Yes
Forced : Yes

Text #2
ID : 5
Format : UTF-8
Codec ID : S_TEXT/UTF8
Codec ID/Info : UTF-8 Plain Text
Duration : 1 h 51 min
Bit rate : 122 b/s
Count of elements : 1877
Stream size : 101 KiB (0%)
Title : Full
Language : Russian
Default : No
Forced : No

Text #3
ID : 6
Format : UTF-8
Codec ID : S_TEXT/UTF8
Codec ID/Info : UTF-8 Plain Text
Duration : 1 h 51 min
Bit rate : 77 b/s
Count of elements : 1886
Stream size : 63.1 KiB (0%)
Title : Full
Language : English
Default : No
Forced : No

Text #4
ID : 7
Format : UTF-8
Codec ID : S_TEXT/UTF8
Codec ID/Info : UTF-8 Plain Text
Duration : 1 h 51 min
Bit rate : 90 b/s
Count of elements : 2473
Stream size : 73.8 KiB (0%)
Title : SDH
Language : English
Default : No
Forced : No

Menu
00:00:00.000 : en:00:00:00.000
00:04:09.666 : en:00:04:09.666
00:11:07.417 : en:00:11:07.417
00:17:28.923 : en:00:17:28.923
00:23:43.881 : en:00:23:43.881
00:27:54.589 : en:00:27:54.589
00:34:18.807 : en:00:34:18.807
00:41:39.956 : en:00:41:39.956
00:51:27.709 : en:00:51:27.709
00:58:04.606 : en:00:58:04.606
01:01:50.957 : en:01:01:50.957
01:06:17.306 : en:01:06:17.306
01:12:31.806 : en:01:12:31.806
01:19:10.120 : en:01:19:10.120
01:27:24.030 : en:01:27:24.030
01:38:26.775 : en:01:38:26.775
Источник http://BlaTor.org

Трекер:  [ 16-Фев-2019 12:50 ]

  

Скачать .torrent

Размер .torrent файла 7 KB


Размер: 5.42 GB
Хэш (hash) релиза: 0f84a45148ef0c347b25ead5091ffa91769ff375
Подписка на обновления:

Торренты, похожие на Ральф против интернета Ralph Breaks the Internet скачать торрент

Форум Название Автор Размер S L Добавлен
Мультфильмы 2016-2018 (Новинки мультфильмов) ·%· Ральф против интернета / Ralph Breaks the Internet (2018) BDRemux 1080p от селезень | 3D-Video | Лицензия Galfimbul 3698288230434.44 GB 0 0 1556882446

14:20

3-Май-19

Мультфильмы 2016-2018 (Новинки мультфильмов) ·%· Ральф против интернета / Ralph Breaks the Internet (2018) BDRip 1080p от Ash61 | 3D-Video | halfOU | Лицензия Galfimbul 92185278458.59 GB 0 0 1556832034

00:20

3-Май-19

Мультфильмы 2016-2018 (Новинки мультфильмов) ·%· Ральф против интернета / Ralph Breaks the Internet (2018) BDRip-HEVC 1080p от M@kSIMus | Лицензия Galfimbul 62692053165.84 GB 0 0 1555051890

09:51

12-Апр-19

Мультфильмы 2016-2018 (Новинки мультфильмов) ·%· Ральф против интернета / Ralph Breaks the Internet (2018) BDRip от ExKinoRay | iTunes Galfimbul 15173655281.41 GB 0 0 1551025245

19:20

24-Фев-19

Мультфильмы 2016-2018 (Новинки мультфильмов) ·%· Ральф против интернета / Ralph Breaks the Internet (2018) BDRip от ExKinoRay | iTunes Galfimbul 22891601922.13 GB 2 0 1551025235

19:20

24-Фев-19

Мультфильмы 2016-2018 (Новинки мультфильмов) ·%· Ральф против интернета / Ralph Breaks the Internet (2018) BDRip 720p от Scarabey | iTunes Galfimbul 44239357334.12 GB 0 0 1550856652

20:30

22-Фев-19

Мультфильмы 2016-2018 (Новинки мультфильмов) ·%· Ральф против интернета / Ralph Breaks the Internet (2018) UHD BDRemux 2160p от селезень | 4K | HDR | iTunes Galfimbul 4510343680042.01 GB 0 0 1550801428

05:10

22-Фев-19

Мультфильмы 2016-2018 (Новинки мультфильмов) ·%· Ральф против интернета / Ralph Breaks the Internet (2018) BDRip-HEVC 1080p от Donatik | iTunes Galfimbul 41392492943.85 GB 0 0 1550784052

00:20

22-Фев-19

Мультфильмы 2016-2018 (Новинки мультфильмов) ·%· Ральф против интернета / Ralph Breaks the Internet (2018) HDRip от Scarabey | iTunes Galfimbul 781502464745 MB 0 0 1550682718

20:11

20-Фев-19

Мультфильмы 2016-2018 (Новинки мультфильмов) ·%· Ральф против интернета / Ralph Breaks the Internet (2018) BDRip 1080p от qqss44 & MegaPeer | iTunes Galfimbul 59081426795.5 GB 0 0 1550659823

13:50

20-Фев-19

Зарубежные фильмы 2016-2018 (Новинки зарубежного кино) ·%· Ральф против интернета / Ralph Breaks the Internet (2018) BDRip-AVC от HELLYWOOD | iTunes Galfimbul 15153543791.41 GB 2 0 1550633409

06:30

20-Фев-19

Мультфильмы 2016-2018 (Новинки мультфильмов) ·%· Ральф против интернета / Ralph Breaks the Internet (2018) BDRip-AVC от OlLanDGroup | iTunes Galfimbul 15135384161.41 GB 0 0 1550625037

04:10

20-Фев-19

Мультфильмы 2016-2018 (Новинки мультфильмов) ·%· Ральф против интернета / Ralph Breaks the Internet (2018) BDRemux 1080p от селезень | iTunes Galfimbul 2445041267322.77 GB 0 0 1550586039

17:20

19-Фев-19

Мультфильмы 2016-2018 (Новинки мультфильмов) ·%· Ральф против интернета / Ralph Breaks the Internet (2018) HDRip от Scarabey | iTunes Galfimbul 14987673601.4 GB 0 0 1550512320

20:52

18-Фев-19

Мультфильмы 2016-2018 (Новинки мультфильмов) ·%· Ральф против интернета / Ralph Breaks the Internet (2018) HDRip от MegaPeer | iTunes Galfimbul 780263822744 MB 0 0 1550474456

10:20

18-Фев-19

Мультфильмы 2016-2018 (Новинки мультфильмов) ·%· Ральф против интернета / Ralph Breaks the Internet (2018) HDRip-AVC от ExKinoRay | iTunes Galfimbul 782530057746 MB 2 0 1550466025

08:00

18-Фев-19

Мультфильмы 2016-2018 (Новинки мультфильмов) ·%· Ральф против интернета / Ralph Breaks the Internet (2018) BDRip 1080p от селезень | iTunes Galfimbul 1240236307311.55 GB 0 0 1550379017

07:50

17-Фев-19

Мультфильмы 2016-2018 (Новинки мультфильмов) ·%· Ральф против интернета / Ralph Breaks the Internet (2018) HDRip-AVC | iTunes Galfimbul 20663154861.92 GB 2 0 1550332253

18:50

16-Фев-19

Мультфильмы 2016-2018 (Новинки мультфильмов) ·%· Ральф против интернета / Ralph Breaks the Internet (2018) WEB-DLRip от Generalfilm | КПК | iTunes Galfimbul 452246604431 MB 0 0 1550302261

10:31

16-Фев-19

Еще никто не оставлял запись к записи скачать торрент Ральф против интернета Ralph Breaks the Internet . Будь первым!

!Обратная связь