Скачать через торрент Зелёная книга Green Book Фильм бесплатно в хорошем качестве torrent

Скачивайте на UnionPeer.org фильмы через торрент без регистрации. Новинки кино в хорошем качестве через торрент. На UnionPeer.org можно скачать через торрент фильмы 2014 и 2015 годов. Самые новые фильмы.

Скачать торрент Зелёная книга Green Book бесплатно через .torrent фильм мультфильм сериал

Статистика раздачи
Размер:  9.15 GB   |    Зарегистрирован:  1 месяц 3 дня   |    .torrent скачан:  143 раза   |   
Раздают:  1  
   
загрузка...
 
Автор Сообщение

Galfimbul

avatar Galfimbul


Зелёная книга /Green Book

Год выхода: 2018
Жанр: Драма, комедия, биография
Режиссер: Питер Фаррелли
В ролях: Вигго Мортенсен, Махершала Али, Линда Карделлини, Себастьян Манискалко, Димитар Маринов, Майк Хаттон, П.Дж. Бирн, Джозеф Кортезе, Мэгги Никсон, Фон Льюис

О фильме:
Утонченный светский лев, богатый и талантливый музыкант нанимает в качестве водителя и телохранителя человека, который менее всего подходит для этой работы. Тони «Болтун» - вышибала, не умеющий держать рот на замке и пользоваться столовыми приборами, зато он хорошо работает кулаками. Это турне навсегда изменит жизнь обоих.



Страна: США
Студия: Participant Media, DreamWorks, Amblin Partners
Продолжительность: 02:10:05
Перевод: Профессиональный многоголосый | HDRezka Studio

Файл
Кодек: AVC
Качество: WEB-DL 1080p | Green.Book.2018.1080p.AMZN.WEB-DL.DDP5.1.H.264-NTG
Видео: MPEG-4 AVC, 9168 Kбит/с, 1920x960, 23.976 кадр/с
Аудио #1: Русский ( АС3, 2ch, 256 Кбит/с, 48.0 KHz) Профессиональный (многоголосый, закадровый) HDRezka Studio
Аудио #2: Английский ( E-АС3, 6ch, 640 Кбит/с, 48.0 KHz)
Субтитры: Русские, английские
Источник: Green.Book.2018.1080p.AMZN.WEB-DL.DDP5.1.H.264-NTG
General
Unique ID : 229486082790878344222484320199607660991 (0xACA5697018B9925296737E9CBCE131BF)
Complete name : Green.Book.2018.WEB-DL.1080p.mkv
Format : Matroska
Format version : Version 4 / Version 2
File size : 9.15 GiB
Duration : 2 h 10 min
Overall bit rate : 10.1 Mb/s
Encoded date : UTC 2019-02-19 18:34:36
Writing application : mkvmerge v7.1.0 ('Good Love') 64bit built on Jul 27 2014 13:06:55
Writing library : libebml v1.3.0 + libmatroska v1.4.1

Video
ID : 1
Format : AVC
Format/Info : Advanced Video Codec
Format profile : High@L4
Format settings, CABAC : Yes
Format settings, RefFrames : 4 frames
Codec ID : V_MPEG4/ISO/AVC
Duration : 2 h 10 min
Bit rate mode : Constant
Bit rate : 9 168 kb/s
Nominal bit rate : 10 000 kb/s
Width : 1 920 pixels
Height : 960 pixels
Display aspect ratio : 2.000
Frame rate mode : Constant
Frame rate : 23.976 (24000/1001) FPS
Color space : YUV
Chroma subsampling : 4:2:0
Bit depth : 8 bits
Scan type : Progressive
Bits/(Pixel*Frame) : 0.207
Stream size : 8.33 GiB (91%)
Language : English
Default : Yes
Forced : No
Color range : Limited
Color primaries : BT.709
Transfer characteristics : BT.709
Matrix coefficients : BT.709

Audio #1
ID : 2
Format : AC-3
Format/Info : Audio Coding 3
Format settings, Endianness : Big
Codec ID : A_AC3
Duration : 2 h 10 min
Bit rate mode : Constant
Bit rate : 256 kb/s
Channel(s) : 2 channels
Channel positions : Front: L R
Sampling rate : 48.0 kHz
Frame rate : 31.250 FPS (1536 SPF)
Bit depth : 16 bits
Compression mode : Lossy
Stream size : 238 MiB (3%)
Title : MVO | HDRezka Studio
Language : Russian
Service kind : Complete Main
Default : Yes
Forced : No

Audio #2
ID : 3
Format : E-AC-3
Format/Info : Enhanced Audio Coding 3
Format settings, Endianness : Big
Codec ID : A_EAC3
Duration : 2 h 10 min
Bit rate mode : Constant
Bit rate : 640 kb/s
Channel(s) : 6 channels
Channel positions : Front: L C R, Side: L R, LFE
Sampling rate : 48.0 kHz
Frame rate : 187.500 FPS (256 SPF)
Compression mode : Lossy
Stream size : 596 MiB (6%)
Language : English
Service kind : Complete Main
Default : No
Forced : No

Text #1
ID : 4
Format : UTF-8
Codec ID : S_TEXT/UTF8
Codec ID/Info : UTF-8 Plain Text
Duration : 2 h 0 min
Bit rate : 102 b/s
Count of elements : 1406
Stream size : 90.4 KiB (0%)
Language : Russian
Default : No
Forced : No

Text #2
ID : 5
Format : UTF-8
Codec ID : S_TEXT/UTF8
Codec ID/Info : UTF-8 Plain Text
Duration : 2 h 9 min
Bit rate : 69 b/s
Count of elements : 2389
Stream size : 66.4 KiB (0%)
Title : SDH
Language : English
Default : No
Forced : No
Источник http://BlaTor.org

Трекер:  [ 19-Фев-2019 23:30 ]

  

Скачать .torrent

Размер .torrent файла 23 KB


Размер: 9.15 GB
Хэш (hash) релиза: a56d534fa4d52af3a47d9c0f91d7af90c787fd1a
Подписка на обновления:

Торренты, похожие на Зелёная книга Green Book скачать торрент

Форум Название Автор Размер S L Добавлен
Зарубежные фильмы 2016-2018 (Новинки зарубежного кино) ·%· Зелёная книга / Green Book (2018) HDRip-AVC от ExKinoRay | iTunes Galfimbul 781635943745 MB 0 0 1553272870

19:41

22-Мар-19

Зарубежные фильмы 2016-2018 (Новинки зарубежного кино) ·%· Зелёная книга / Green Book (2018) BDRip 2160p | 4K | HDR | D, P | iTunes Galfimbul 2341838077621.81 GB 0 0 1552219849

15:10

10-Мар-19

Зарубежные фильмы 2016-2018 (Новинки зарубежного кино) ·%· Зеленая книга / Green Book (2018) Blu-ray 1080p | iTunes Galfimbul 4331030608840.34 GB 0 0 1552015221

06:20

8-Мар-19

Зарубежные фильмы 2016-2018 (Новинки зарубежного кино) ·%· Зелёная книга / Green Book (2018) BDRip-HEVC 1080p от HANNIBAL | iTunes Galfimbul 68764157876.4 GB 0 0 1551992424

00:00

8-Мар-19

Зарубежные фильмы 2016-2018 (Новинки зарубежного кино) ·%· Зелёная книга / Green Book (2018) BDRip 720p от Scarabey | iTunes Galfimbul 79822079837.43 GB 0 0 1551978013

20:00

7-Мар-19

Зарубежные фильмы 2016-2018 (Новинки зарубежного кино) ·%· Зелёная книга / Green Book (2018) BDRip от MegaPeer | iTunes Galfimbul 834978054796 MB 0 0 1551772818

11:00

5-Мар-19

Зарубежные фильмы 2016-2018 (Новинки зарубежного кино) ·%· Зелёная книга / Green Book (2018) The Girl in the Spider's Web (2018) UHD BDRemux 2160p от селезень | 4K | HDR | D, P | iTunes Galfimbul 5607099366652.22 GB 0 0 1551766903

09:21

5-Мар-19

Зарубежные фильмы 2016-2018 (Новинки зарубежного кино) ·%· Зелёная книга / Green Book (2018) BDRip от ExKinoRay | iTunes Galfimbul 22816098322.12 GB 0 0 1551764418

08:40

5-Мар-19

Зарубежные фильмы 2016-2018 (Новинки зарубежного кино) ·%· Зелёная книга / Green Book (2018) BDRip 720p от k.e.n & MegaPeer | D, P | iTunes Galfimbul 61143113335.69 GB 0 0 1551763209

08:20

5-Мар-19

Зарубежные фильмы 2016-2018 (Новинки зарубежного кино) ·%· Зелёная книга / Green Book (2018) BDRip от ExKinoRay | iTunes Galfimbul 15726852381.46 GB 0 0 1551726049

22:00

4-Мар-19

Зарубежные фильмы 2016-2018 (Новинки зарубежного кино) ·%· Зелёная книга / Green Book (2018) BDRip 1080p от qqss44 & MegaPeer | iTunes Galfimbul 105647980809.84 GB 0 0 1551717653

19:40

4-Мар-19

Зарубежные фильмы 2016-2018 (Новинки зарубежного кино) ·%· Зеленая книга / Green Book (2018) BDRip-AVC от HELLYWOOD | iTunes Galfimbul 30606949372.85 GB 0 0 1551641409

22:30

3-Мар-19

Зарубежные фильмы 2016-2018 (Новинки зарубежного кино) ·%· Зелёная книга / Green Book (2018) BDRip от ExKinoRay | iTunes Galfimbul 22806247062.12 GB 0 0 1551627033

18:30

3-Мар-19

Зарубежные фильмы 2016-2018 (Новинки зарубежного кино) ·%· Зелёная книга / Green Book (2018) BDRip от ExKinoRay | iTunes Galfimbul 15717047561.46 GB 0 0 1551625818

18:10

3-Мар-19

Зарубежные фильмы 2016-2018 (Новинки зарубежного кино) ·%· Зелёная книга / Green Book (2018) BDRemux 1080p от селезень | D, P | iTunes Galfimbul 3373763275431.42 GB 0 0 1551610214

13:50

3-Мар-19

Зарубежные фильмы 2016-2018 (Новинки зарубежного кино) ·%· Зелёная книга / Green Book (2018) BDRip 1080p от селезень | D, P | iTunes Galfimbul 1661066292915.47 GB 0 0 1551281433

18:30

27-Фев-19

Зарубежные фильмы 2016-2018 (Новинки зарубежного кино) ·%· Зелёная книга / Green Book (2018) BDRip 720p от селезень | D, P | iTunes Galfimbul 78292980677.29 GB 0 0 1551221414

01:50

27-Фев-19

Зарубежные фильмы 2016-2018 (Новинки зарубежного кино) ·%· Зелёная книга / Green Book (2018) WEB-DLRip от Scarabey | iTunes Galfimbul 23526092802.19 GB 0 0 1551201645

20:20

26-Фев-19

Зарубежные фильмы 2016-2018 (Новинки зарубежного кино) ·%· Зелёная книга / Green Book (2018) WEB-DLRip от Generalfilm | КПК | iTunes Galfimbul 516991413493 MB 0 0 1551171618

12:00

26-Фев-19

Зарубежные фильмы 2016-2018 (Новинки зарубежного кино) ·%· Зелёная книга / Green Book (2018) WEB-DL 720p | D, P | iTunes Galfimbul 60675748075.65 GB 0 0 1551079896

10:31

25-Фев-19

Еще никто не оставлял запись к записи скачать торрент Зелёная книга Green Book . Будь первым!

!Обратная связь