Скачать через торрент Отвязные приключения в Лондоне Lost in London Фильм бесплатно в хорошем качестве torrent

Скачивайте на UnionPeer.org фильмы через торрент без регистрации. Новинки кино в хорошем качестве через торрент. На UnionPeer.org можно скачать через торрент фильмы 2014 и 2015 годов. Самые новые фильмы.

Скачать торрент Отвязные приключения в Лондоне Lost in London бесплатно через .torrent фильм мультфильм сериал

Статистика раздачи
Размер:  1.83 GB   |    Зарегистрирован:  3 месяца   |    .torrent скачан:  150 раз   |   
Раздают:  2  
   
загрузка...
 
Автор Сообщение

Galfimbul

avatar Galfimbul


Отвязные приключения в Лондоне / Lost in London
«Oh the weather outside is frightful...»


Год выпуска: 2017
Страна: США, Великобритания
Производство: Waypoint Entertainment
Жанр: Драма, комедия
Режиссёр: Вуди Харрельсон
В ролях: Дэниэл Рэдклифф, Вуди Харрельсон, Оуэн Уилсон, Элинор Мацуура, Мартин МакКанн, Уилли Нельсон
Перевод: Дублированный | [iTunes]
Субтитры: Нет
Реклама: Отсутствует

Описание: В основу сюжета фильма легли реальные события, происходившие с Вуди Харрельсоном в столице Великобритании. По воле случая главный герой оказывается в Лондоне. Чтобы скоротать время, он отправляется в местный паб… Но что-то пошло не так, когда Вуди встретил там своего старинного приятеля Оуэна. Всего за одну ночь он умудрился устроить невообразимый переполох. Ему удалось перевернуть с ног на голову весь город и оказаться в бурном водовороте самых необычных и забавных событий, которые только можно себе представить!


Качество: WEB-DLRip-AVC | AMZN Version |
Продолжительность: 01:43:35

Формат: MKV
Видео кодек: MPEG-4 AVC
Аудио кодек: AC3
Видео: 1024x576 (16:9), 23,976 fps, x264 ~2 153 kbps avg, 0.152 bit/pixel
Аудио #1: 48 kHz, AC3 Dolby Digital, 3/2 (L,C,R,l,r) + LFE ch, ~384.00 kbps avg | RUS (iTunes)
Дата премьеры (мир): 19 января 2017
Дата премьеры (РФ):
Цифровой релиз: 25 февраля 2019, «НД Плэй»
Общее
Уникальный идентификатор : 163569777571533445836300611227880106160 (0x7B0E64ACD47F85F559021EF438F9A8B0)
Полное имя : F:OlLanDGroupLost.in.London.2017.AMZN.WEB-DLRip(AVC).OlLanDGroup.mkv
Формат : Matroska
Версия формата : Version 4 / Version 2
Размер файла : 1,83 Гбайт
Продолжительность : 1 ч. 43 м.
Общий поток : 2535 Кбит/сек
Название фильма : Lost.in.London.2017 #TorpedoUK#
Дата кодирования : UTC 2019-02-25 11:05:01
Программа кодирования : mkvmerge v29.0.0 ('Like It Or Not') 64-bit
Библиотека кодирования : libebml v1.3.6 + libmatroska v1.4.9

Видео
Идентификатор : 1
Формат : AVC
Формат/Информация : Advanced Video Codec
Профиль формата : High@L4.1
Параметр CABAC формата : Да
Параметр ReFrames формата : 10 кадров
Идентификатор кодека : V_MPEG4/ISO/AVC
Продолжительность : 1 ч. 43 м.
Битрейт : 2153 Кбит/сек
Ширина : 1024 пикселя
Высота : 576 пикселей
Соотношение сторон : 16:9
Режим частоты кадров : Постоянный
Частота кадров : 23,976 (24000/1001) кадра/сек
Цветовое пространство : YUV
Субдискретизация насыщенности : 4:2:0
Битовая глубина : 8 бит
Тип развёртки : Прогрессивная
Бит/(Пиксели*Кадры) : 0.152
Размер потока : 1,55 Гбайт (85%)
Библиотека кодирования : x264 core 146 r2538 121396c
Настройки программы : cabac=1 / ref=10 / deblock=1:-2:-3 / analyse=0x3:0x113 / me=umh / subme=10 / psy=1 / psy_rd=0.97:0.05 / mixed_ref=1 / me_range=48 / chroma_me=1 / trellis=2 / 8x8dct=1 / cqm=0 / deadzone=21,11 / fast_pskip=1 / chroma_qp_offset=-3 / threads=6 / lookahead_threads=1 / sliced_threads=0 / nr=0 / decimate=1 / interlaced=0 / bluray_compat=0 / constrained_intra=0 / bframes=11 / b_pyramid=2 / b_adapt=2 / b_bias=0 / direct=3 / weightb=1 / open_gop=0 / weightp=2 / keyint=240 / keyint_min=23 / scenecut=40 / intra_refresh=0 / rc_lookahead=40 / rc=2pass / mbtree=0 / bitrate=2153 / ratetol=1.0 / qcomp=0.60 / qpmin=0 / qpmax=69 / qpstep=4 / cplxblur=20.0 / qblur=0.5 / vbv_maxrate=50000 / vbv_bufsize=62500 / nal_hrd=none / filler=0 / ip_ratio=1.40 / pb_ratio=1.30 / aq=1:1.00
Язык : English
Default : Да
Forced : Нет

Аудио
Идентификатор : 2
Формат : AC-3
Формат/Информация : Audio Coding 3
Расширение режима : CM (complete main)
Параметр Endianness формата : Big
Идентификатор кодека : A_AC3
Продолжительность : 1 ч. 43 м.
Вид битрейта : Постоянный
Битрейт : 384 Кбит/сек
Каналы : 6 каналов
Расположение каналов : Front: L C R, Side: L R, LFE
Частота : 48,0 КГц
Частота кадров : 31,250 кадров/сек (1536 spf)
Битовая глубина : 16 бит
Метод сжатия : С потерями
Размер потока : 284 Мбайт (15%)
Заголовок : [DUB] DD 5.1 @ 384 kbps (iTunes)
Язык : Russian
Default : Да
Forced : Нет

Меню
00:00:00.000 : en:1
00:01:02.000 : en:2
00:12:25.000 : en:3
00:24:40.000 : en:4
00:34:05.000 : en:5
00:45:56.000 : en:6
00:57:04.000 : en:7
01:07:04.000 : en:8
01:18:08.000 : en:9
01:28:57.000 : en:10
01:40:34.000 : en:11
Источник http://BlaTor.org

Трекер:  [ 25-Фев-2019 14:30 ]

  

Скачать .torrent

Размер .torrent файла 19 KB


Размер: 1.83 GB
Хэш (hash) релиза: 296ac0fee3408205d9d4ba225b8453ad8ea63b0c
Подписка на обновления:

Еще никто не оставлял запись к записи скачать торрент Отвязные приключения в Лондоне Lost in London . Будь первым!

!Обратная связь