Скачать через торрент Завод Фильм бесплатно в хорошем качестве torrent

Скачивайте на UnionPeer.org фильмы через торрент без регистрации. Новинки кино в хорошем качестве через торрент. На UnionPeer.org можно скачать через торрент фильмы 2014 и 2015 годов. Самые новые фильмы.

Скачать торрент Завод бесплатно через .torrent фильм мультфильм сериал

Статистика раздачи
Размер:  4.93 GB   |    Зарегистрирован:  2 месяца 26 дней   |    .torrent скачан:  335 раз   |   
Раздают:  2  
   
загрузка...
 
Автор Сообщение

Galfimbul

avatar Galfimbul


Завод



[b]Жанр
: криминал, драма, триллер
Год выпуска: 2018
Режиссёр: Юрий Быков
В ролях: Денис Шведов, Владислав Абашин, Андрей Смоляков, Александр Бухаров, Дмитрий Куличков, Иван Янковский, Юрий Тарасов, Пётр Баранчеев, Александр Воробьёв, Алексей Комашко, Кирилл Полухин, Александр Логинов, Сергей Сосновский, Борис Невзоров, Олег Алмазов, Александр Баширов, Алексей Фаддеев, Илья Соколовский

Описание: Прямо посреди дня из своего «мерса» похищен местный олигарх Калугин. Неизвестные в балаклавах потребовали за него большой выкуп. Отвезти деньги берётся глава личной охраны бизнесмена по кличке Туман. Его вооружённые до зубов «спецы» приезжают ночью на завод Калугина, где теперь босса держат в заложниках.
Они пока не знают, что те другие, забаррикадировавшиеся в цехе — это местные рабочие во главе с бывшим спецназовцем по прозвищу Седой. Полгода без зарплаты и предстоящее банкротство завода толкнули их на отчаянный шаг.
Чтобы вытащить своего хозяина, «спецы» не остановятся ни перед чем. Но в отличие от них «работягам» больше нечего терять.


Страна: Россия, Франция, Армения
Студия: START, Инвада фильм и другие
Продолжительность: 01:46:12
Перевод: Не требуется

Качество: WEB-DL 1080p
Формат: MKV
Видео: MPEG4 AVC Video, H264, 16:9, 1920x1080, 23.976 fps, 6446 kbps
Аудио: Russian (AC3, 2 ch, 192 kbps, 16 bits, 48.0 KHz) - оригинал
Субтитры: нет
General
Unique ID : 209045490787320620055448115725385754665 (0x9D44B27184882C8E8CF3C627DFDE6829)
Complete name : D:Zavod.2018.WEB-DL.(1080p).Getty.mkv
Format : Matroska
Format version : Version 4 / Version 2
File size : 4.93 GiB
Duration : 1 h 46 min
Overall bit rate : 6 640 kb/s
Movie name : Zavod.2018.WEB-DL.(1080p).Getty
Encoded date : UTC 2019-02-28 01:55:31
Writing application : mkvmerge v7.8.0 ('River Man') 32bit built on Mar 27 2015 16:18:02
Writing library : libebml v1.3.1 + libmatroska v1.4.2

Video
ID : 1
Format : AVC
Format/Info : Advanced Video Codec
Format profile : High@L4
Format settings : CABAC / 4 Ref Frames
Format settings, CABAC : Yes
Format settings, ReFrames : 4 frames
Codec ID : V_MPEG4/ISO/AVC
Duration : 1 h 46 min
Bit rate : 6 446 kb/s
Width : 1 920 pixels
Height : 1 080 pixels
Display aspect ratio : 16:9
Frame rate mode : Constant
Frame rate : 23.976 (24000/1001) FPS
Color space : YUV
Chroma subsampling : 4:2:0
Bit depth : 8 bits
Scan type : Progressive
Bits/(Pixel*Frame) : 0.130
Stream size : 4.78 GiB (97%)
Default : Yes
Forced : No

Audio
ID : 2
Format : AC-3
Format/Info : Audio Coding 3
Codec ID : A_AC3
Duration : 1 h 46 min
Bit rate mode : Constant
Bit rate : 192 kb/s
Channel(s) : 2 channels
Channel positions : Front: L R
Sampling rate : 48.0 kHz
Frame rate : 31.250 FPS (1536 SPF)
Bit depth : 16 bits
Compression mode : Lossy
Stream size : 146 MiB (3%)
Service kind : Complete Main
Default : Yes
Forced : No
Источник http://BlaTor.org

Трекер:  [ 28-Фев-2019 09:50 ]

  

Скачать .torrent

Размер .torrent файла 25 KB


Размер: 4.93 GB
Хэш (hash) релиза: 7c688ba76e4e16f049ce085a9f320bfee33338e7
Подписка на обновления:

Торренты, похожие на Завод скачать торрент

Форум Название Автор Размер S L Добавлен
Российские фильмы 2016-2018 (Новинки русского кино) ·%· Завод (2018) WEB-DLRip от Scarabey | iTunes Galfimbul 15518187521.45 GB 0 0 1554657634

20:20

7-Апр-19

Российские фильмы 2016-2018 (Новинки русского кино) ·%· Завод (2018) WEB-DLRip-AVC от Files-x | iTunes Galfimbul 15638776021.46 GB 0 0 1552749042

18:10

16-Мар-19

Российские фильмы 2016-2018 (Новинки русского кино) ·%· Завод (2018) WEB-DLRip-AVC от OlLanDGroup | iTunes Galfimbul 18030331091.68 GB 0 0 1552740620

15:50

16-Мар-19

Российские фильмы 2016-2018 (Новинки русского кино) ·%· Завод (2018) WEB-DLRip от GeneralFilm | iTunes Galfimbul 782325760746 MB 2 0 1552689019

01:30

16-Мар-19

Российские фильмы 2016-2018 (Новинки русского кино) ·%· Завод (2018) WEB-DLRip от ExKinoRay | iTunes Galfimbul 15726205381.46 GB 0 0 1552591252

22:20

14-Мар-19

Российские фильмы 2016-2018 (Новинки русского кино) ·%· Завод (2018) WEB-DLRip от OlLanDGroup | iTunes Galfimbul 781658112745 MB 0 0 1552555819

12:30

14-Мар-19

Российские фильмы 2016-2018 (Новинки русского кино) ·%· Завод (2018) WEB-DL 720p | iTunes Galfimbul 24492286572.28 GB 0 0 1552552221

11:30

14-Мар-19

Российские фильмы 2016-2018 (Новинки русского кино) ·%· Завод (2018) WEB-DLRip от MegaPeer | iTunes Galfimbul 15679119361.46 GB 0 0 1552547443

10:10

14-Мар-19

Российские фильмы 2016-2018 (Новинки русского кино) ·%· Завод (2018) WEB-DL 1080p | iTunes Galfimbul 45667590114.25 GB 0 0 1552543862

09:11

14-Мар-19

Российские фильмы 2016-2018 (Новинки русского кино) ·%· Завод (2018) WEB-DLRip | iTunes Galfimbul 22038241282.05 GB 0 0 1552543853

09:10

14-Мар-19

Российские фильмы 2016-2018 (Новинки русского кино) ·%· Завод (2018) WEB-DLRip от Scarabey Galfimbul 781422592745 MB 2 0 1551462656

20:50

1-Мар-19

Российские фильмы 2016-2018 (Новинки русского кино) ·%· Завод (2018) WEBRip от ExKinoRay Galfimbul 15706525681.46 GB 0 0 1551461445

20:30

1-Мар-19

Российские фильмы 2016-2018 (Новинки русского кино) ·%· Завод (2018) WEB-DLRip от Scarabey Galfimbul 15887421441.48 GB 0 0 1551461424

20:30

1-Мар-19

Российские фильмы 2016-2018 (Новинки русского кино) ·%· Завод (2018) WEBRip от GeneralFilm Galfimbul 782186496746 MB 0 0 1551392451

01:20

1-Мар-19

Российские фильмы 2016-2018 (Новинки русского кино) ·%· Завод (2018) WEBRip-AVC от Files-x Galfimbul 15623306861.46 GB 0 0 1551382859

22:40

28-Фев-19

Российские фильмы 2016-2018 (Новинки русского кино) ·%· Завод (2018) WEBRip-AVC Galfimbul 10719504521022 MB 0 0 1551374414

20:20

28-Фев-19

Российские фильмы 2016-2018 (Новинки русского кино) ·%· Завод (2018) WEBRip от Generalfilm | КПК Galfimbul 423527440404 MB 0 0 1551361229

16:40

28-Фев-19

Российские фильмы 2016-2018 (Новинки русского кино) ·%· Завод (2018) WEBRip 720p Galfimbul 36703523303.42 GB 2 0 1551345046

12:10

28-Фев-19

Российские фильмы 2016-2018 (Новинки русского кино) ·%· Завод (2019) WEB-DLRip Galfimbul 14720798721.37 GB 0 0 1551336665

09:51

28-Фев-19

Еще никто не оставлял запись к записи скачать торрент Завод . Будь первым!

!Обратная связь