Скачать через торрент Завод Фильм бесплатно в хорошем качестве torrent

Скачивайте на UnionPeer.org фильмы через торрент без регистрации. Новинки кино в хорошем качестве через торрент. На UnionPeer.org можно скачать через торрент фильмы 2014 и 2015 годов. Самые новые фильмы.

Скачать торрент Завод бесплатно через .torrent фильм мультфильм сериал

Статистика раздачи
Размер:  3.42 GB   |    Зарегистрирован:  2 месяца 26 дней   |    .torrent скачан:  156 раз   |   
Раздают:  2  
   
загрузка...
 
Автор Сообщение

Galfimbul

avatar Galfimbul


Завод



[b]Год выпуска
: 2018
Жанр: Криминал, драма, триллер
Режиссёр: Юрий Быков
В ролях: Денис Шведов, Владислав Абашин, Андрей Смоляков, Александр Бухаров, Дмитрий Куличков, Иван Янковский, Юрий Тарасов, Пётр Баранчеев, Александр Воробьёв, Алексей Комашко, Кирилл Полухин, Александр Логинов, Сергей Сосновский, Борис Невзоров, Олег Алмазов, Александр Баширов, Алексей Фаддеев, Илья Соколовский

Описание: Прямо посреди дня из своего «мерса» похищен местный олигарх Калугин. Неизвестные в балаклавах потребовали за него большой выкуп. Отвезти деньги берётся глава личной охраны бизнесмена по кличке Туман. Его вооружённые до зубов «спецы» приезжают ночью на завод Калугина, где теперь босса держат в заложниках. Они пока не знают, что те другие, забаррикадировавшиеся в цехе — это местные рабочие во главе с бывшим спецназовцем по прозвищу Седой. Полгода без зарплаты и предстоящее банкротство завода толкнули их на отчаянный шаг. Чтобы вытащить своего хозяина, «спецы» не остановятся ни перед чем. Но в отличие от них «работягам» больше нечего терять.


Страна: Россия, Франция, Армения
Студия: START, Инвада фильм
Продолжительность: 01:46:12
Перевод: Не требуется

Файл
Качество: WEBRip 720p
Формат: MKV
Видео: MPEG-4 AVC, 16:9, 1280x720, 23.976 fps, 4414 kbps
Аудио: Russian: AC3, 2 ch, 192 kbps, 16 bits, 48.0 KHz - Оригинал
Субтитры: Нет
Общее
Уникальный идентификатор : 8835919525930335733549872070762499717 (0x6A5BC779C685021919D824530690E85)
Полное имя : D:1Завод (2018).mkv
Формат : Matroska
Версия формата : Version 4
Размер файла : 3,42 Гбайт
Продолжительность : 1 ч. 46 м.
Общий поток : 4608 Кбит/сек
Дата кодирования : UTC 2019-02-28 07:47:15
Программа кодирования : mkvmerge v31.0.0 ('Dolores In A Shoestand') 64-bit
Библиотека кодирования : libebml v1.3.6 + libmatroska v1.4.9 / Lavf57.71.100

Видео
Идентификатор : 1
Формат : AVC
Формат/Информация : Advanced Video Codec
Профиль формата : Main@L3.1
Настройки формата : CABAC / 1 Ref Frames
Параметр CABAC формата : Да
Параметр RefFrames формата : 1 кадр
Идентификатор кодека : V_MPEG4/ISO/AVC
Продолжительность : 1 ч. 46 м.
Битрейт : 4414 Кбит/сек
Ширина : 1280 пикселей
Высота : 720 пикселей
Соотношение сторон : 16:9
Режим частоты кадров : Постоянный
Частота кадров : 23,976 кадра/сек
Цветовое пространство : YUV
Субдискретизация насыщенности : 4:2:0
Битовая глубина : 8 бит
Тип развёртки : Прогрессивная
Бит/(Пиксели*Кадры) : 0.200
Размер потока : 3,27 Гбайт (96%)
Default : Да
Forced : Нет

Аудио
Идентификатор : 2
Формат : AC-3
Формат/Информация : Audio Coding 3
Коммерческое название : Dolby Digital
Идентификатор кодека : A_AC3
Продолжительность : 1 ч. 46 м.
Вид битрейта : Постоянный
Битрейт : 192 Кбит/сек
Каналы : 2 канала
Channel layout : L R
Частота : 48,0 КГц
Частота кадров : 31,250 кадров/сек (1536 SPF)
Битовая глубина : 16 бит
Метод сжатия : С потерями
Размер потока : 146 Мбайт (4%)
Default : Да
Forced : Нет
Источник http://BlaTor.org

Трекер:  [ 28-Фев-2019 12:10 ]

  

Скачать .torrent

Размер .torrent файла 17 KB


Размер: 3.42 GB
Хэш (hash) релиза: 6a5a5bfd6c99d561f25c54930931f5f0de369f0e
Подписка на обновления:

Торренты, похожие на Завод скачать торрент

Форум Название Автор Размер S L Добавлен
Российские фильмы 2016-2018 (Новинки русского кино) ·%· Завод (2018) WEB-DLRip от Scarabey | iTunes Galfimbul 15518187521.45 GB 0 0 1554657634

20:20

7-Апр-19

Российские фильмы 2016-2018 (Новинки русского кино) ·%· Завод (2018) WEB-DLRip-AVC от Files-x | iTunes Galfimbul 15638776021.46 GB 0 0 1552749042

18:10

16-Мар-19

Российские фильмы 2016-2018 (Новинки русского кино) ·%· Завод (2018) WEB-DLRip-AVC от OlLanDGroup | iTunes Galfimbul 18030331091.68 GB 0 0 1552740620

15:50

16-Мар-19

Российские фильмы 2016-2018 (Новинки русского кино) ·%· Завод (2018) WEB-DLRip от GeneralFilm | iTunes Galfimbul 782325760746 MB 2 0 1552689019

01:30

16-Мар-19

Российские фильмы 2016-2018 (Новинки русского кино) ·%· Завод (2018) WEB-DLRip от ExKinoRay | iTunes Galfimbul 15726205381.46 GB 0 0 1552591252

22:20

14-Мар-19

Российские фильмы 2016-2018 (Новинки русского кино) ·%· Завод (2018) WEB-DLRip от OlLanDGroup | iTunes Galfimbul 781658112745 MB 0 0 1552555819

12:30

14-Мар-19

Российские фильмы 2016-2018 (Новинки русского кино) ·%· Завод (2018) WEB-DL 720p | iTunes Galfimbul 24492286572.28 GB 0 0 1552552221

11:30

14-Мар-19

Российские фильмы 2016-2018 (Новинки русского кино) ·%· Завод (2018) WEB-DLRip от MegaPeer | iTunes Galfimbul 15679119361.46 GB 0 0 1552547443

10:10

14-Мар-19

Российские фильмы 2016-2018 (Новинки русского кино) ·%· Завод (2018) WEB-DL 1080p | iTunes Galfimbul 45667590114.25 GB 0 0 1552543862

09:11

14-Мар-19

Российские фильмы 2016-2018 (Новинки русского кино) ·%· Завод (2018) WEB-DLRip | iTunes Galfimbul 22038241282.05 GB 0 0 1552543853

09:10

14-Мар-19

Российские фильмы 2016-2018 (Новинки русского кино) ·%· Завод (2018) WEB-DLRip от Scarabey Galfimbul 781422592745 MB 2 0 1551462656

20:50

1-Мар-19

Российские фильмы 2016-2018 (Новинки русского кино) ·%· Завод (2018) WEBRip от ExKinoRay Galfimbul 15706525681.46 GB 0 0 1551461445

20:30

1-Мар-19

Российские фильмы 2016-2018 (Новинки русского кино) ·%· Завод (2018) WEB-DLRip от Scarabey Galfimbul 15887421441.48 GB 0 0 1551461424

20:30

1-Мар-19

Российские фильмы 2016-2018 (Новинки русского кино) ·%· Завод (2018) WEBRip от GeneralFilm Galfimbul 782186496746 MB 0 0 1551392451

01:20

1-Мар-19

Российские фильмы 2016-2018 (Новинки русского кино) ·%· Завод (2018) WEBRip-AVC от Files-x Galfimbul 15623306861.46 GB 0 0 1551382859

22:40

28-Фев-19

Российские фильмы 2016-2018 (Новинки русского кино) ·%· Завод (2018) WEBRip-AVC Galfimbul 10719504521022 MB 0 0 1551374414

20:20

28-Фев-19

Российские фильмы 2016-2018 (Новинки русского кино) ·%· Завод (2018) WEBRip от Generalfilm | КПК Galfimbul 423527440404 MB 0 0 1551361229

16:40

28-Фев-19

Российские фильмы 2016-2018 (Новинки русского кино) ·%· Завод (2018) WEB-DL 1080p Galfimbul 52891733264.93 GB 2 0 1551336675

09:51

28-Фев-19

Российские фильмы 2016-2018 (Новинки русского кино) ·%· Завод (2019) WEB-DLRip Galfimbul 14720798721.37 GB 0 0 1551336665

09:51

28-Фев-19

Еще никто не оставлял запись к записи скачать торрент Завод . Будь первым!

!Обратная связь