Скачать через торрент Аквамен Aquaman Фильм бесплатно в хорошем качестве torrent

Скачивайте на UnionPeer.org фильмы через торрент без регистрации. Новинки кино в хорошем качестве через торрент. На UnionPeer.org можно скачать через торрент фильмы 2014 и 2015 годов. Самые новые фильмы.

Скачать торрент Аквамен Aquaman бесплатно через .torrent фильм мультфильм сериал

Статистика раздачи
Размер:  14.95 GB   |    Зарегистрирован:  2 месяца 21 день   |    .torrent скачан:  191 раз   |   
Раздают:  2  
   
загрузка...
 
Автор Сообщение

Galfimbul

avatar Galfimbul


Аквамен /Aquaman

Год выхода: 2018
Жанр: Фантастика, фэнтези, боевик, приключения
Режиссер: Джеймс Ван
В ролях: Джейсон Момоа, Эмбер Хёрд, Дольф Лундгрен, Николь Кидман, Джули Эндрюс, Патрик Уилсон, Уиллем Дефо, Грэм МакТавиш, Талия Джейд, Джимон Хонсу, Темуэра Моррисон, Майкл Бич



О фильме: Действие фильма разворачивается в необъятном и захватывающем подводном мире семи морей, а сюжет знакомит зрителей с историей происхождения получеловека-полуатланта Артура Карри и ключевыми событиями его жизни — теми, что заставят его не только столкнуться с самим собой, но и выяснить, достоин ли он быть тем, кем ему суждено… царем!

Страна: Австралия, США
Студия: DC Comics, DC Entertainment, Panoramic Pictures
Продолжительность: 02:23:21
Перевод(ы):
#1: Дублированный | iTunes
#2: Профессиональный многоголосый | HDRezka Studio

Качество: WEB-DL 2160p
Видео: MPEG-H HEVC HDR Video, 3840x2160, 13.6 Мbit/s, 23.976 fps
Звук:
Аудио #01: 48 kHz, AC3, 5.1, 384 Kbps | Дублированный | RUS |
Аудио #02: 48 kHz, AC3, 2.0, 192 Kbps | Профессиональный многоголосый | RUS |
Аудио #03: 48 kHz, AC3, 2.0, 160 Kbps | Дублированный | UKR |
Аудио #04: 48 kHz, E-AC3, 5.1, 576 Kbps | Оригинал | ENG |
Субтитры: Русские (Forced, full), английские

General
Unique ID : 290819507461014537697265171900684644992 (0xDAC9CCBE9603CEB52826CA5A639D3280)
Complete name : D:Video111Aquaman.2018.WEB-DL.2160p.HDR.seleZen.mkv
Format : Matroska
Format version : Version 4
File size : 14.9 GiB
Duration : 2 h 23 min
Overall bit rate : 14.9 Mb/s
Movie name : Aquaman 2018 from селезень
Encoded date : UTC 2019-03-05 19:52:17
Writing application : mkvmerge v31.0.0 ('Dolores In A Shoestand') 64-bit
Writing library : libebml v1.3.6 + libmatroska v1.4.9

Video
ID : 1
Format : HEVC
Format/Info : High Efficiency Video Coding
Commercial name : HDR10
Format profile : Main 10@L5.1@Main
Codec ID : V_MPEGH/ISO/HEVC
Duration : 2 h 23 min
Bit rate : 13.6 Mb/s
Width : 3 840 pixels
Height : 2 160 pixels
Display aspect ratio : 16:9
Frame rate mode : Constant
Frame rate : 23.976 (24000/1001) FPS
Color space : YUV
Chroma subsampling : 4:2:0 (Type 2)
Bit depth : 10 bits
Bits/(Pixel*Frame) : 0.068
Stream size : 13.6 GiB (91%)
Language : English
Default : Yes
Forced : No
Color range : Limited
Color primaries : BT.2020
Transfer characteristics : PQ
Matrix coefficients : BT.2020 non-constant
Mastering display color pri : Display P3
Mastering display luminance : min: 0.0050 cd/m2, max: 4000 cd/m2
Maximum Content Light Level : 1506 cd/m2
Maximum Frame-Average Light : 459 cd/m2

Audio #1
ID : 2
Format : AC-3
Format/Info : Audio Coding 3
Commercial name : Dolby Digital
Codec ID : A_AC3
Duration : 2 h 23 min
Bit rate mode : Constant
Bit rate : 384 kb/s
Channel(s) : 6 channels
Channel layout : L R C LFE Ls Rs
Sampling rate : 48.0 kHz
Frame rate : 31.250 FPS (1536 SPF)
Bit depth : 16 bits
Compression mode : Lossy
Stream size : 394 MiB (3%)
Title : iTunes
Language : Russian
Service kind : Complete Main
Default : Yes
Forced : Yes

Audio #2
ID : 3
Format : AC-3
Format/Info : Audio Coding 3
Commercial name : Dolby Digital
Codec ID : A_AC3
Duration : 2 h 23 min
Bit rate mode : Constant
Bit rate : 192 kb/s
Channel(s) : 2 channels
Channel layout : L R
Sampling rate : 48.0 kHz
Frame rate : 31.250 FPS (1536 SPF)
Bit depth : 16 bits
Compression mode : Lossy
Stream size : 197 MiB (1%)
Title : MVO [HDRezka Studio]
Language : Russian
Service kind : Complete Main
Default : No
Forced : No

Audio #3
ID : 4
Format : AC-3
Format/Info : Audio Coding 3
Commercial name : Dolby Digital
Codec ID : A_AC3
Duration : 2 h 23 min
Bit rate mode : Constant
Bit rate : 160 kb/s
Channel(s) : 2 channels
Channel layout : L R
Sampling rate : 48.0 kHz
Frame rate : 31.250 FPS (1536 SPF)
Bit depth : 16 bits
Compression mode : Lossy
Stream size : 164 MiB (1%)
Title : iTunes
Language : Ukrainian
Service kind : Complete Main
Default : No
Forced : No

Audio #4
ID : 5
Format : E-AC-3 JOC
Format/Info : Enhanced AC-3 with Joint Object Coding
Commercial name : Dolby Digital Plus with Dolby Atmos
Codec ID : A_EAC3
Duration : 2 h 23 min
Bit rate mode : Constant
Bit rate : 576 kb/s
Channel(s) : 6 channels
Channel layout : L R C LFE Ls Rs
Sampling rate : 48.0 kHz
Frame rate : 31.250 FPS (1536 SPF)
Compression mode : Lossy
Stream size : 591 MiB (4%)
Title : Original
Language : English
Service kind : Complete Main
Default : No
Forced : No
Complexity index : 16
Number of dynamic objects : 15
Bed channel count : 1 channel
Bed channel configuration : LFE

Text #1
ID : 6
Format : UTF-8
Codec ID : S_TEXT/UTF8
Codec ID/Info : UTF-8 Plain Text
Duration : 2 h 14 min
Bit rate : 1 b/s
Count of elements : 27
Stream size : 1.23 KiB (0%)
Title : Forced
Language : Russian
Default : Yes
Forced : Yes

Text #2
ID : 7
Format : UTF-8
Codec ID : S_TEXT/UTF8
Codec ID/Info : UTF-8 Plain Text
Duration : 2 h 22 min
Bit rate : 55 b/s
Count of elements : 1119
Stream size : 58.0 KiB (0%)
Title : Full
Language : Russian
Default : No
Forced : No

Text #3
ID : 8
Format : UTF-8
Codec ID : S_TEXT/UTF8
Codec ID/Info : UTF-8 Plain Text
Duration : 2 h 22 min
Bit rate : 1 b/s
Count of elements : 32
Stream size : 1.54 KiB (0%)
Title : Forced
Language : Ukrainian
Default : No
Forced : No

Text #4
ID : 9
Format : UTF-8
Codec ID : S_TEXT/UTF8
Codec ID/Info : UTF-8 Plain Text
Duration : 2 h 14 min
Bit rate : 38 b/s
Count of elements : 1132
Stream size : 37.5 KiB (0%)
Language : English
Default : No
Forced : No

Menu
00:00:00.000 : en:1
00:11:08.293 : en:2
00:22:10.621 : en:3
00:30:10.017 : en:4
00:40:27.718 : en:5
00:50:23.647 : en:6
01:01:14.756 : en:7
01:08:56.092 : en:8
01:21:40.272 : en:9
01:34:49.436 : en:10
01:39:36.431 : en:11
01:49:31.818 : en:12
02:01:35.541 : en:13
02:10:18.897 : en:14
Источник http://BlaTor.org

Трекер:  [ 05-Мар-2019 23:00 ]

  

Скачать .torrent

Размер .torrent файла 150 KB


Размер: 14.95 GB
Хэш (hash) релиза: ae8e3e6c456d9ec9c9e6546c5ba32d8ebfa0985d
Подписка на обновления:

Торренты, похожие на Аквамен Aquaman скачать торрент

Форум Название Автор Размер S L Добавлен
Зарубежные фильмы 2016-2018 (Новинки зарубежного кино) ·%· Аквамен / Aquaman (2018) HDRip от Deadmauvlad | D | Open Matte Galfimbul 23497052162.19 GB 0 0 1558781428

13:50

25-Май-19

Зарубежные фильмы 2016-2018 (Новинки зарубежного кино) ·%· Аквамен / Aquaman (2018) HDRip от Deadmauvlad | D | Open Matte Galfimbul 15634862081.46 GB 0 0 1558686687

11:31

24-Май-19

Зарубежные фильмы 2016-2018 (Новинки зарубежного кино) ·%· Аквамен / Aquaman (2018) BDRip 1080p | D | Open Matte Galfimbul 97932288069.12 GB 0 0 1558556407

23:20

22-Май-19

Зарубежные фильмы 2016-2018 (Новинки зарубежного кино) ·%· Аквамен / Aquaman (2018) DVD9 | IMAX | Лицензия Galfimbul 71887892486.7 GB 0 0 1554673809

00:50

8-Апр-19

Зарубежные фильмы 2016-2018 (Новинки зарубежного кино) ·%· Аквамен / Aquaman (2018) BDRip-AVC от HELLYWOOD | IMAX | Лицензия Galfimbul 15689007571.46 GB 0 0 1553685609

14:20

27-Мар-19

Зарубежные фильмы 2016-2018 (Новинки зарубежного кино) ·%· Аквамен / Aquaman (2018) BDRip-AVC от Files-x | IMAX Edition | Лицензия Galfimbul 36735671623.42 GB 0 0 1553446314

19:51

24-Мар-19

Зарубежные фильмы 2016-2018 (Новинки зарубежного кино) ·%· Аквамен / Aquaman (2018) Blu-Ray EUR 1080p | Лицензия Galfimbul 4970737383946.29 GB 0 0 1553443830

19:10

24-Мар-19

Зарубежные фильмы 2016-2018 (Новинки зарубежного кино) ·%· Аквамен / Aquaman (2018) Blu-Ray EUR 1080p | Лицензия Galfimbul 4970944921646.3 GB 0 0 1553442621

18:50

24-Мар-19

Зарубежные фильмы 2016-2018 (Новинки зарубежного кино) ·%· Аквамен / Aquaman (2018) BDRip 720p от k.e.n & MegaPeer | D, P | IMAX Edition | Лицензия Galfimbul 73653283696.86 GB 2 0 1553350812

17:20

23-Мар-19

Зарубежные фильмы 2016-2018 (Новинки зарубежного кино) ·%· Аквамен / Aquaman (2018) BDRip-HEVC 1080p от HANNIBAL | IMAX | Лицензия Galfimbul 1328014071712.37 GB 0 0 1553348411

16:40

23-Мар-19

Зарубежные фильмы 2016-2018 (Новинки зарубежного кино) ·%· Аквамен / Aquaman (2018) BDRip-HEVC 1080p | IMAX | Лицензия Galfimbul 101752932719.48 GB 0 0 1553282407

22:20

22-Мар-19

Зарубежные фильмы 2016-2018 (Новинки зарубежного кино) ·%· Аквамен / Aquaman (2018) HDRip от Scarabey | IMAX Edition | Лицензия Galfimbul 15560007681.45 GB 0 0 1553102408

20:20

20-Мар-19

Зарубежные фильмы 2016-2018 (Новинки зарубежного кино) ·%· Аквамен / Aquaman (2018) BDRip 720p от HELLYWOOD | IMAX | Лицензия Galfimbul 85314477037.95 GB 0 0 1553055634

07:20

20-Мар-19

Зарубежные фильмы 2016-2018 (Новинки зарубежного кино) ·%· Аквамен / Aquaman (2018) BDRip от ExKinoRay | IMAX Edition | Лицензия Galfimbul 15664073801.46 GB 0 0 1553014821

20:00

19-Мар-19

Зарубежные фильмы 2016-2018 (Новинки зарубежного кино) ·%· Аквамен / Aquaman (2018) BDRip от ExKinoRay | IMAX Edition | Лицензия Galfimbul 23430658922.18 GB 0 0 1553014810

20:00

19-Мар-19

Зарубежные фильмы 2016-2018 (Новинки зарубежного кино) ·%· Аквамен / Aquaman (2018) BDRip 1080p от qqss44 & MegaPeer | IMAX Edition | Лицензия Galfimbul 106292004039.9 GB 0 0 1553007608

18:00

19-Мар-19

Зарубежные фильмы 2016-2018 (Новинки зарубежного кино) ·%· Аквамен / Aquaman (2018) BDRip-AVC от HELLYWOOD | Лицензия Galfimbul 36628466693.41 GB 2 0 1552992012

13:40

19-Мар-19

Зарубежные фильмы 2016-2018 (Новинки зарубежного кино) ·%· Аквамен / Aquaman (2018) Blu-Ray EUR 1080p | IMAX | Лицензия Galfimbul 4992162899646.49 GB 0 0 1552987224

12:20

19-Мар-19

Зарубежные фильмы 2016-2018 (Новинки зарубежного кино) ·%· Аквамен / Aquaman (2018) BDRip-AVC от OlLanDGroup | IMAX Edition | Лицензия Galfimbul 23400414382.18 GB 0 0 1552982415

11:00

19-Мар-19

Зарубежные фильмы 2016-2018 (Новинки зарубежного кино) ·%· Аквамен / Aquaman (2018) BDRip 1080p от Ash61 | 3D-Video | halfOU | Лицензия Galfimbul 1856159455517.29 GB 2 0 1552981209

10:40

19-Мар-19

Еще никто не оставлял запись к записи скачать торрент Аквамен Aquaman . Будь первым!

!Обратная связь