Скачать через торрент Господство Суперменов Reign of the Supermen Фильм бесплатно в хорошем качестве torrent

Скачивайте на UnionPeer.org фильмы через торрент без регистрации. Новинки кино в хорошем качестве через торрент. На UnionPeer.org можно скачать через торрент фильмы 2014 и 2015 годов. Самые новые фильмы.

Скачать торрент Господство Суперменов Reign of the Supermen бесплатно через .torrent фильм мультфильм сериал

Статистика раздачи
Размер:  1.51 GB   |    Зарегистрирован:  10 дней   |    .torrent скачан:  22 раза   |   
Раздают:  1  
   
загрузка...
 
Автор Сообщение

Galfimbul

avatar Galfimbul


Год выпуска: 2019
Жанр: Мультфильм, фантастика, боевик, комикс, полнометражный
Режиссёр: Сэм Лью
В ролях: Кэмерон Монахэн, Розарио Доусон, Натан Филлион, Ребекка Ромейн, Рэйн Уилсон, Джерри О`Коннелл, Дженнифер Хейл, Кристофер Горам, Шемар Мур, Бренда Стронг

Описание: Продолжение мультфильма "Смерть Супермена". История начинается через шесть месяцев после трагической смерти Супермена, погибшего во время сражения с чудовищным злодеем по имени Думсдэй. Мир все еще оплакивает потерю великого героя, когда его тело невероятным образом исчезает из могилы. В то время как власти проводят расследование, ситуация в городе усложняется внезапным появлением новых сверхлюдей, желающих стать преемниками Человека из стали. Супербой, Киборг-Супермен, Сталь и Уничтожитель – каждый из них отличается уникальным характером и стилем борьбы с преступностью, но лишь один сможет занять место супергероя.



Страна: США
Производство: DC Entertainment
Перевод: Профессиональный (многоголосый, закадровый) | [HDRezka Studio]
Любительский (двухголосый закадровый) AniStar
Продолжительность: 01:27:13
Субтитры: Английские, русские

БЕЗ КАКОЙ-ЛИБО РЕКЛАМЫ!

Формат: MKV
Качество: WEB-DLRip-AVC
Видео: MPEG-4 AVC, 1024x576 (16:9), 23.976 fps, 1450 Kbps, 0.103 bit/pixel
Аудио #01: 48 kHz, AC3, 2.0, 192 Kbps | HDRezka | RUS |
Аудио #02: 48 kHz, AC3, 5.1, 384 Kbps | AniStar | RUS |
Аудио #03: 48 kHz, AC3, 5.1, 448 Kbps | Оригинал | ENG |
General
Unique ID : 208567131268416963393986701817952598747 (0x9CE8917F8C4CE02E9F2D82210AAFFADB)
Complete name : D:Reign.of.the.Supermen.2019.2xRus.BDRip.AVC.ExKinoRay.mkv
Format : Matroska
Format version : Version 2
File size : 1.51 GiB
Duration : 1 h 27 min
Overall bit rate : 2 469 kb/s
Movie name : Reign of the Supermen 2019 from ExKinoRay
Encoded date : UTC 2019-03-12 17:10:01
Writing application : mkvmerge v5.6.0 ('Kenya Kane') built on May 27 2012 16:44:04
Writing library : libebml v1.2.3 + libmatroska v1.3.0

Video
ID : 1
Format : AVC
Format/Info : Advanced Video Codec
Format profile : High@L4.1
Format settings, CABAC : Yes
Format settings, ReFrames : 12 frames
Codec ID : V_MPEG4/ISO/AVC
Duration : 1 h 27 min
Bit rate : 1 450 kb/s
Width : 1 024 pixels
Height : 576 pixels
Display aspect ratio : 16:9
Frame rate mode : Constant
Frame rate : 23.976 (23976/1000) FPS
Color space : YUV
Chroma subsampling : 4:2:0
Bit depth : 8 bits
Scan type : Progressive
Bits/(Pixel*Frame) : 0.103
Stream size : 874 MiB (57%)
Title : Enigma
Writing library : x264 core 152 r2851 ba24899
Encoding settings : cabac=1 / ref=12 / deblock=1:-3:-2 / analyse=0x3:0x113 / me=umh / subme=10 / psy=1 / psy_rd=1.03:0.08 / mixed_ref=1 / me_range=32 / chroma_me=1 / trellis=2 / 8x8dct=1 / cqm=0 / deadzone=21,11 / fast_pskip=0 / chroma_qp_offset=-3 / threads=12 / lookahead_threads=3 / sliced_threads=0 / nr=0 / decimate=0 / interlaced=0 / bluray_compat=0 / constrained_intra=0 / bframes=10 / b_pyramid=2 / b_adapt=2 / b_bias=0 / direct=3 / weightb=1 / open_gop=0 / weightp=2 / keyint=240 / keyint_min=23 / scenecut=40 / intra_refresh=0 / rc_lookahead=40 / rc=2pass / mbtree=1 / bitrate=1450 / ratetol=1.0 / qcomp=0.65 / qpmin=0 / qpmax=51 / qpstep=4 / cplxblur=20.0 / qblur=0.5 / ip_ratio=1.35 / aq=1:1.00
Language : English
Default : Yes
Forced : No
Color range : Limited
Color primaries : BT.709
Transfer characteristics : BT.709
Matrix coefficients : BT.709

Audio #1
ID : 2
Format : AC-3
Format/Info : Audio Coding 3
Mode extension : CM (complete main)
Format settings, Endianness : Big
Codec ID : A_AC3
Duration : 1 h 27 min
Bit rate mode : Constant
Bit rate : 192 kb/s
Channel(s) : 2 channels
Channel positions : Front: L R
Sampling rate : 48.0 kHz
Frame rate : 31.250 FPS (1536 spf)
Compression mode : Lossy
Stream size : 120 MiB (8%)
Title : MVO (HDRezka Studio)
Language : Russian
Default : Yes
Forced : No

Audio #2
ID : 3
Format : AC-3
Format/Info : Audio Coding 3
Mode extension : CM (complete main)
Format settings, Endianness : Big
Codec ID : A_AC3
Duration : 1 h 27 min
Bit rate mode : Constant
Bit rate : 384 kb/s
Channel(s) : 6 channels
Channel positions : Front: L C R, Side: L R, LFE
Sampling rate : 48.0 kHz
Frame rate : 31.250 FPS (1536 spf)
Compression mode : Lossy
Stream size : 240 MiB (16%)
Title : DVO (AniStar)
Language : Russian
Default : No
Forced : No

Audio #3
ID : 4
Format : AC-3
Format/Info : Audio Coding 3
Mode extension : CM (complete main)
Format settings, Endianness : Big
Codec ID : A_AC3
Duration : 1 h 27 min
Bit rate mode : Constant
Bit rate : 448 kb/s
Channel(s) : 6 channels
Channel positions : Front: L C R, Side: L R, LFE
Sampling rate : 48.0 kHz
Frame rate : 31.250 FPS (1536 spf)
Compression mode : Lossy
Stream size : 280 MiB (18%)
Language : English
Default : No
Forced : No

Text #1
ID : 5
Format : UTF-8
Codec ID : S_TEXT/UTF8
Codec ID/Info : UTF-8 Plain Text
Title : Full
Language : Russian
Default : No
Forced : No

Text #2
ID : 6
Format : UTF-8
Codec ID : S_TEXT/UTF8
Codec ID/Info : UTF-8 Plain Text
Title : UGN SUBZ Translators
Language : Russian
Default : No
Forced : No

Text #3
ID : 7
Format : UTF-8
Codec ID : S_TEXT/UTF8
Codec ID/Info : UTF-8 Plain Text
Title : Full
Language : English
Default : No
Forced : No

Text #4
ID : 8
Format : UTF-8
Codec ID : S_TEXT/UTF8
Codec ID/Info : UTF-8 Plain Text
Title : SDH
Language : English
Default : No
Forced : No

Menu
00:00:00.000 : en:Chapter 01
00:10:10.693 : en:Chapter 02
00:21:05.347 : en:Chapter 03
00:33:15.452 : en:Chapter 04
00:43:32.193 : en:Chapter 05
00:53:08.185 : en:Chapter 06
01:04:37.999 : en:Chapter 07
01:13:56.599 : en:Chapter 08
01:23:35.010 : en:Chapter 09


Автор релиза:
Источник http://BlaTor.org

Трекер:  [ 12-Мар-2019 21:30 ]

  

Скачать .torrent

Размер .torrent файла 15 KB


Размер: 1.51 GB
Хэш (hash) релиза: f700dd312445d56f0b5baf91a7e3b9833637e69c
Подписка на обновления:

Торренты, похожие на Господство Суперменов Reign of the Supermen скачать торрент

Форум Название Автор Размер S L Добавлен
Мультфильмы 2016-2018 (Новинки мультфильмов) ·%· Господство Суперменов / Reign of the Supermen (2019) BDRip от ExKinoRay | HDRezka Studio Galfimbul 781228032745 MB 0 0 1552414268

21:11

12-Мар-19

Мультфильмы 2016-2018 (Новинки мультфильмов) ·%· Господство Суперменов / Reign of the Supermen (2019) BDRemux 1080p | HDRezka Studio, AniStar Galfimbul 1156870018910.77 GB 0 0 1551640313

22:11

3-Мар-19

Мультфильмы 2016-2018 (Новинки мультфильмов) ·%· Господство Суперменов / Reign of the Supermen (2019) HDRip от MegaPeer | HDRezka Studio Galfimbul 14459042741.35 GB 0 0 1551505821

08:50

2-Мар-19

Мультфильмы 2016-2018 (Новинки мультфильмов) ·%· Господство Суперменов / Reign of the Supermen (2019) BDRip 1080p от OlLanDGroup | HDRezka Studio Galfimbul 50935010784.74 GB 0 0 1551076212

09:30

25-Фев-19

Мультфильмы 2016-2018 (Новинки мультфильмов) ·%· Господство Суперменов / Reign of the Supermen (2019) WEB-DL 1080p | ZM-SHOW Galfimbul 34743097953.24 GB 0 0 1548864623

19:10

30-Янв-19

Мультфильмы 2016-2018 (Новинки мультфильмов) ·%· Господство Суперменов / Reign of the Supermen (2019) WEB-DLRip 1080p | Flarrow Films Galfimbul 35703191533.33 GB 0 0 1548525021

20:50

26-Янв-19

Еще никто не оставлял запись к записи скачать торрент Господство Суперменов Reign of the Supermen . Будь первым!

!Обратная связь