Скачать через торрент Золушка и тайный принц Cinderella and Secret Prince Фильм бесплатно в хорошем качестве torrent

Скачивайте на UnionPeer.org фильмы через торрент без регистрации. Новинки кино в хорошем качестве через торрент. На UnionPeer.org можно скачать через торрент фильмы 2014 и 2015 годов. Самые новые фильмы.

Скачать торрент Золушка и тайный принц Cinderella and Secret Prince бесплатно через .torrent фильм мультфильм сериал

Статистика раздачи
Размер:  3.11 GB   |    Зарегистрирован:  2 месяца 13 дней   |    .torrent скачан:  61 раз   |   
Раздают:  1  
   
загрузка...
 
Автор Сообщение

Galfimbul

avatar Galfimbul


Золушка и тайный принц / Cinderella and Secret Prince

Год выпуска: 2019
Жанр: Мультфильм, фэнтези, приключения, семейный, полнометражный
Режиссер: Линн Саузерленд
В ролях: Кассандра Моррис, Крис Ниоси, Тони Аззолино, Уэнди Ли, Стивен Мендел, Керстен Дэй, Стефани Сандиц

Описание: Во время королевского бала, Золушка и ее друзья-мыши узнают невероятную тайну: злая ведьма превратила настоящего принца в мышь, а "принц" на королевском балу - подделка. Теперь Золушка и ее друзья отправятся в приключение, чтобы спасти настоящего принца и помочь ему одолеть злые чары.



Выпущено: США, Gold Valley Films
Продолжительность: 01:27:10
Перевод: Профессиональный (многоголосый, закадровый) | HDRezka Studio

Файл
Качество: WEB-DL 1080p
Контейнер: MKV
Видео: MPEG-4 AVC, 4530 Кбит/с, 1920x818, 24 Кадр/с
Аудио 1: Русский: AC3, 2 ch, 192 Кбит/с - HDRezka Studio
Аудио 2: Английский: AC3, 6 ch, 384 Кбит/с - Original
Субтитры: Нет
General
Unique ID : 177760012408377110784514604146687911337 (0x85BB5544CF232DC40E9F00B3D746A5A9)
Complete name : F:Cinderella.and.the.Secret.Prince.2019.webdL.108Op.werecut.PROD.mkv
Format : Matroska
Format version : Version 4
File size : 3.11 GiB
Duration : 1 h 27 min
Overall bit rate : 5 104 kb/s
Movie name : Cinderella And The Secret Prince 2019 OT werewcut PROD.
Encoded date : UTC 2019-03-10 18:52:05
Writing application : mkvmerge v28.0.0 ('Voice In My Head') 64-bit
Writing library : libebml v1.3.6 + libmatroska v1.4.9

Video
ID : 1
Format : AVC
Format/Info : Advanced Video Codec
Format profile : High@L4
Format settings : CABAC / 5 Ref Frames
Format settings, CABAC : Yes
Format settings, ReFrames : 5 frames
Codec ID : V_MPEG4/ISO/AVC
Duration : 1 h 27 min
Bit rate : 4 530 kb/s
Width : 1 920 pixels
Height : 818 pixels
Display aspect ratio : 2.35:1
Frame rate mode : Constant
Frame rate : 24.000 FPS
Color space : YUV
Chroma subsampling : 4:2:0
Bit depth : 8 bits
Scan type : Progressive
Bits/(Pixel*Frame) : 0.120
Stream size : 2.76 GiB (89%)
Language : English
Default : Yes
Forced : No
Color range : Limited
Color primaries : BT.709
Transfer characteristics : BT.709
Matrix coefficients : BT.709

Audio #1
ID : 2
Format : AC-3
Format/Info : Audio Coding 3
Commercial name : Dolby Digital
Codec ID : A_AC3
Duration : 1 h 27 min
Bit rate mode : Constant
Bit rate : 192 kb/s
Channel(s) : 2 channels
Channel layout : L R
Sampling rate : 48.0 kHz
Frame rate : 31.250 FPS (1536 SPF)
Bit depth : 16 bits
Compression mode : Lossy
Stream size : 120 MiB (4%)
Title : HDREZKA STUDIO
Language : Russian
Service kind : Complete Main
Default : Yes
Forced : No

Audio #2
ID : 3
Format : AC-3
Format/Info : Audio Coding 3
Commercial name : Dolby Digital
Codec ID : A_AC3
Duration : 1 h 27 min
Bit rate mode : Constant
Bit rate : 384 kb/s
Channel(s) : 6 channels
Channel layout : L R C LFE Ls Rs
Sampling rate : 48.0 kHz
Frame rate : 31.250 FPS (1536 SPF)
Bit depth : 16 bits
Compression mode : Lossy
Stream size : 239 MiB (8%)
Language : English
Service kind : Complete Main
Default : No
Forced : No

Menu
00:00:00.000 : en:1
00:10:27.708 : en:2
00:21:01.666 : en:3
00:30:37.291 : en:4
00:36:48.916 : en:5
00:42:31.541 : en:6
00:55:31.832 : en:7
01:03:28.707 : en:8
01:09:25.457 : en:9
01:17:44.582 : en:10
Источник http://BlaTor.org

Трекер:  [ 13-Мар-2019 10:50 ]

  

Скачать .torrent

Размер .torrent файла 31 KB


Размер: 3.11 GB
Хэш (hash) релиза: 4699adcb4d5e210d6958df8bd7aeecf895dd4c03
Подписка на обновления:

Торренты, похожие на Золушка и тайный принц Cinderella and Secret Prince скачать торрент

Форум Название Автор Размер S L Добавлен
Мультфильмы 2016-2018 (Новинки мультфильмов) ·%· Золушка и тайный принц / Cinderella and Secret Prince (2019) WEB-DLRip от ExKinoRay | HDRezka Studio Galfimbul 15611043841.45 GB 0 0 1552441223

04:40

13-Мар-19

Еще никто не оставлял запись к записи скачать торрент Золушка и тайный принц Cinderella and Secret Prince . Будь первым!

!Обратная связь