Скачать через торрент Человек-паук: Через вселенные Spider-Man: Into the Spider-Verse Фильм бесплатно в хорошем качестве torrent

Скачивайте на UnionPeer.org фильмы через торрент без регистрации. Новинки кино в хорошем качестве через торрент. На UnionPeer.org можно скачать через торрент фильмы 2014 и 2015 годов. Самые новые фильмы.

Скачать торрент Человек-паук: Через вселенные Spider-Man: Into the Spider-Verse бесплатно через .torrent фильм мультфильм сериал

Статистика раздачи
Размер:  747 MB   |    Зарегистрирован:  9 дней   |    .torrent скачан:  20 раз   |   
Раздают:  1  
   
загрузка...
 
Автор Сообщение

Galfimbul

avatar Galfimbul


Название: Человек-паук: Через вселенные
Оригинальное название: Spider-Man: Into the Spider-Verse
Год выхода: 2018
Жанр: Мультфильм, фантастика, комедия, приключения, семейный, полнометражный
Режиссер: Боб Персичетти, Питер Рэмзи, Родни Ротман
В ролях: Шамеик Мур, Джейк Джонсон, Хейли Стайнфелд, Махершала Али, Брайан Тайри Генри, Лили Томлин, Лорен Велес, Зои Кравиц, Джон Мулэйни, Кимико Гленн, Николас Кейдж, Кэтрин Хан, Лив Шрайбер, Крис Пайн, Натали Моралес, Эдвин Хэбакон, Оскар Айзек, Грета Ли, Стэн Ли, Йорма Такконе

О фильме :
Мы всё знаем о Питере Паркере. Он спас город, влюбился, а потом спасал город снова и снова… Но все это — в нашем измерении. А что если в результате работы гигантского коллайдера откроется окно из одного измерения в другое? Найдется ли в нем свой Человек-паук? И как он будет выглядеть? Приготовьтесь к тому, что в разных вселенных могут быть разные Люди-пауки и однажды им придется собраться вместе для борьбы с почти непобедимым врагом.



Страна: США
Студия: Avi Arad Productions, Columbia Pictures Corporation, Lord Miller
Продолжительность: 01:56:50
Перевод: Дублированный | iTunes

Файл
Формат: MKV
Качество: BDRip-AVC (BDRemux 1080p)
Видео: MPEG-4 AVC, 784x328, - 815 Кбит/с
Аудио: AAC-HE, 2 ch, - 76 Кбит/с
Субтитры: Русские (Full), украинские (Full), английские
Общее
Уникальный идентификатор : 179836748596065153790532125483853230259 (0x874B4C44A1C6037DB4406A64863930B3)
Полное имя : D:MOVIESChelovek.Pauk.Cherez.Vselennyie.2018.BDRip-AVC.ExKinoRay.mkv
Формат : Matroska
Версия формата : Version 4 / Version 2
Размер файла : 747 Мбайт
Продолжительность : 1 ч. 56 м.
Общий поток : 894 Кбит/сек
Дата кодирования : UTC 2019-03-14 04:11:09
Программа кодирования : mkvmerge v15.0.0 ('Duel with the Devil') 64-bit
Библиотека кодирования : libebml v1.3.5 + libmatroska v1.4.5

Видео
Идентификатор : 1
Формат : AVC
Формат/Информация : Advanced Video Codec
Профиль формата : High@L4.1
Параметр CABAC формата : Да
Параметр RefFrames формата : 12 кадров
Идентификатор кодека : V_MPEG4/ISO/AVC
Продолжительность : 1 ч. 56 м.
Битрейт : 815 Кбит/сек
Ширина : 784 пикселя
Высота : 328 пикселей
Соотношение сторон : 2,40:1
Режим частоты кадров : Постоянный
Частота кадров : 23,976 (24000/1001) кадра/сек
Цветовое пространство : YUV
Субдискретизация насыщенности : 4:2:0
Битовая глубина : 8 бит
Тип развёртки : Прогрессивная
Бит/(Пиксели*Кадры) : 0.132
Размер потока : 682 Мбайт (91%)
Библиотека кодирования : x264 core 152 r2851 ba24899
Настройки программы : cabac=1 / ref=12 / deblock=1:-2:-2 / analyse=0x3:0x133 / me=umh / subme=10 / psy=1 / psy_rd=1.00:0.12 / mixed_ref=1 / me_range=32 / chroma_me=1 / trellis=2 / 8x8dct=1 / cqm=0 / deadzone=21,11 / fast_pskip=0 / chroma_qp_offset=-3 / threads=6 / lookahead_threads=1 / sliced_threads=0 / nr=0 / decimate=0 / interlaced=0 / bluray_compat=0 / constrained_intra=0 / bframes=12 / b_pyramid=2 / b_adapt=2 / b_bias=0 / direct=3 / weightb=1 / open_gop=0 / weightp=2 / keyint=240 / keyint_min=23 / scenecut=40 / intra_refresh=0 / rc=2pass / mbtree=0 / bitrate=815 / ratetol=1.0 / qcomp=0.60 / qpmin=0 / qpmax=69 / qpstep=4 / cplxblur=20.0 / qblur=0.5 / ip_ratio=1.40 / pb_ratio=1.30 / aq=1:1.00
Default : Да
Forced : Нет

Аудио
Идентификатор : 2
Формат : AAC
Формат/Информация : Advanced Audio Codec
Профиль формата : HE-AAC / LC
Идентификатор кодека : A_AAC
Продолжительность : 1 ч. 56 м.
Битрейт : 76,0 Кбит/сек
Каналы : 2 канала
Расположение каналов : Front: L R
Частота : 48,0 КГц / 24,0 КГц
Частота кадров : 23,438 кадра/сек (1024 SPF)
Метод сжатия : С потерями
Задержка видео : 31 мс.
Размер потока : 63,5 Мбайт (9%)
Default : Да
Forced : Нет

Текст #1
Идентификатор : 3
Формат : UTF-8
Идентификатор кодека : S_TEXT/UTF8
Идентификатор кодека/Информация : UTF-8 Plain Text
Продолжительность : 1 ч. 55 м.
Битрейт : 82 бит/сек
ElementCount : 1467
Размер потока : 70,3 Кбайт (0%)
Заголовок : Full [iTunes]
Язык : Russian
Default : Нет
Forced : Нет

Текст #2
Идентификатор : 4
Формат : UTF-8
Идентификатор кодека : S_TEXT/UTF8
Идентификатор кодека/Информация : UTF-8 Plain Text
Продолжительность : 1 ч. 55 м.
Битрейт : 81 бит/сек
ElementCount : 1468
Размер потока : 68,9 Кбайт (0%)
Заголовок : Full [iTunes]
Язык : Ukrainian
Default : Нет
Forced : Нет

Текст #3
Идентификатор : 5
Формат : UTF-8
Идентификатор кодека : S_TEXT/UTF8
Идентификатор кодека/Информация : UTF-8 Plain Text
Продолжительность : 1 ч. 55 м.
Битрейт : 54 бит/сек
ElementCount : 1389
Размер потока : 46,4 Кбайт (0%)
Заголовок : Full [iTunes]
Язык : English
Default : Нет
Forced : Нет

Меню
00:00:00.000 : en:Chapter 01
00:09:03.793 : en:Chapter 02
00:14:04.719 : en:Chapter 03
00:18:51.714 : en:Chapter 04
00:29:39.027 : en:Chapter 05
00:34:14.636 : en:Chapter 06
00:40:34.432 : en:Chapter 07
00:44:22.827 : en:Chapter 08
00:48:06.884 : en:Chapter 09
00:58:45.855 : en:Chapter 10
01:06:04.460 : en:Chapter 11
01:09:55.483 : en:Chapter 12
01:20:00.003 : en:Chapter 13
01:24:54.923 : en:Chapter 14
01:33:33.399 : en:Chapter 15
01:55:26.920 : en:Chapter 16
Источник http://BlaTor.org

Трекер:  [ 14-Мар-2019 07:30 ]

  

Скачать .torrent

Размер .torrent файла 15 KB


Размер: 747 MB
Хэш (hash) релиза: 8eabd06615eefd5ca81ab2118080517c73a460a9
Подписка на обновления:

Торренты, похожие на Человек-паук: Через вселенные Spider-Man: Into the Spider-Verse скачать торрент

Форум Название Автор Размер S L Добавлен
Мультфильмы 2016-2018 (Новинки мультфильмов) ·%· Человек-паук: Через вселенные / Spider-Man: Into the Spider-Verse (2018) BDRip-AVC от HELLYWOOD | iTunes Galfimbul 15133300151.41 GB 0 0 1553334680

12:51

23-Мар-19

Зарубежные фильмы 2016-2018 (Новинки зарубежного кино) ·%· Человек-паук: Через вселенные / Spider-Man: Into the Spider-Verse (2018) BDRip 720p от Scarabey | iTunes Galfimbul 45767883934.26 GB 0 0 1553189501

20:31

21-Мар-19

Мультфильмы 2016-2018 (Новинки мультфильмов) ·%· Человек-паук: Через вселенные / Spider-Man: Into the Spider-Verse (2018) BDRip 720p от k.e.n & MegaPeer | iTunes Galfimbul 46424946664.32 GB 0 0 1553168412

14:40

21-Мар-19

Мультфильмы 2016-2018 (Новинки мультфильмов) ·%· Человек-паук: Через вселенные / Spider-Man: Into the Spider-Verse (2018) BDRip 1080p от qqss44 & MegaPeer | iTunes Galfimbul 81275905377.57 GB 0 0 1552922525

18:22

18-Мар-19

Мультфильмы 2016-2018 (Новинки мультфильмов) ·%· Человек-паук: Через вселенные / Spider-Man: Into the Spider-Verse (2018) BDRip 1080p от Ash61 | 3D-Video | halfOU | iTunes Galfimbul 1507663260914.04 GB 0 0 1552818670

13:31

17-Мар-19

Мультфильмы 2016-2018 (Новинки мультфильмов) ·%· Человек-паук: Через вселенные / Spider-Man: Into the Spider-Verse (2018) BDRemux 1080p от селезень | 3D-Video | iTunes Galfimbul 3115207884829.01 GB 0 0 1552755105

19:51

16-Мар-19

Мультфильмы 2016-2018 (Новинки мультфильмов) ·%· Человек-паук: Через вселенные / Spider-Man: Into the Spider-Verse (2018) WEB-DLRip от Dalemake | Локализованный видеоряд Galfimbul 15782338561.47 GB 0 0 1552636274

10:51

15-Мар-19

Мультфильмы 2016-2018 (Новинки мультфильмов) ·%· Человек-паук: Через вселенные / Spider-Man: Into the Spider-Verse (2018) BDRip-HEVC 1080p от Donatik | iTunes Galfimbul 83555765557.78 GB 0 0 1552499458

20:50

13-Мар-19

Мультфильмы 2016-2018 (Новинки мультфильмов) ·%· Человек-паук: Через вселенные / Spider-Man: Into the Spider-Verse (2018) HDRip-AVC | iTunes Galfimbul 781691857745 MB 0 0 1552497022

20:10

13-Мар-19

Мультфильмы 2016-2018 (Новинки мультфильмов) ·%· Человек-паук: Через вселенные / Spider-Man: Into the Spider-Verse (2018) HDRip от Scarabey | iTunes Galfimbul 782440448746 MB 0 0 1552496548

20:02

13-Мар-19

Мультфильмы 2016-2018 (Новинки мультфильмов) ·%· Человек-паук: Через вселенные / Spider-Man: Into the Spider-Verse (2018) HDRip от Scarabey | iTunes Galfimbul 15079751681.4 GB 0 0 1552495251

19:40

13-Мар-19

Мультфильмы 2016-2018 (Новинки мультфильмов) ·%· Человек-паук: Через вселенные / Spider-Man: Into the Spider-Verse (2018) BDRip-AVC от HELLYWOOD | iTunes Galfimbul 22911246662.13 GB 0 0 1552409502

19:51

12-Мар-19

Мультфильмы 2016-2018 (Новинки мультфильмов) ·%· Человек-паук: Через вселенные / Spider-Man: Into the Spider-Verse (2018) BDRemux 1080p от селезень | iTunes Galfimbul 2294017595621.36 GB 0 0 1552390898

14:41

12-Мар-19

Мультфильмы 2016-2018 (Новинки мультфильмов) ·%· Человек-паук: Через вселенные / Spider-Man: Into the Spider-Verse (2018) HDRip от OlLanDGroup | iTunes Galfimbul 783161344747 MB 0 0 1552335648

23:20

11-Мар-19

Мультфильмы 2016-2018 (Новинки мультфильмов) ·%· Человек-паук: Через вселенные / Spider-Man: Into the Spider-Verse (2018) UHD BDRip 2160p | 4K | HDR | iTunes Galfimbul 1701745503815.85 GB 0 0 1552335636

23:20

11-Мар-19

Мультфильмы 2016-2018 (Новинки мультфильмов) ·%· Человек-паук: Через вселенные / Spider-Man: Into the Spider-Verse (2018) HDRip-AVC от OlLanDGroup | iTunes Galfimbul 22811380532.12 GB 0 0 1552317633

18:20

11-Мар-19

Мультфильмы 2016-2018 (Новинки мультфильмов) ·%· Человек-паук: Через вселенные / Spider-Man: Into the Spider-Verse (2018) HDRip от MegaPeer | iTunes Galfimbul 15678382081.46 GB 0 0 1552290645

10:50

11-Мар-19

Мультфильмы 2016-2018 (Новинки мультфильмов) ·%· Человек-паук: Через вселенные / Spider-Man: Into the Spider-Verse (2018) HDRip от MegaPeer | iTunes Galfimbul 23427031042.18 GB 0 0 1552290632

10:50

11-Мар-19

Мультфильмы 2016-2018 (Новинки мультфильмов) ·%· Человек-паук: Через вселенные / Spider-Man: Into the Spider-Verse (2018) UHD BDRemux 2160p от селезень | 4K | HDR | iTunes Galfimbul 4547982769342.36 GB 0 0 1552260614

02:30

11-Мар-19

Еще никто не оставлял запись к записи скачать торрент Человек-паук: Через вселенные Spider-Man: Into the Spider-Verse . Будь первым!

!Обратная связь