Скачать через торрент Гоголь. Страшная месть Фильм бесплатно в хорошем качестве torrent

Скачивайте на UnionPeer.org фильмы через торрент без регистрации. Новинки кино в хорошем качестве через торрент. На UnionPeer.org можно скачать через торрент фильмы 2014 и 2015 годов. Самые новые фильмы.

Скачать торрент Гоголь. Страшная месть бесплатно через .torrent фильм мультфильм сериал

Статистика раздачи
Размер:  1.46 GB   |    Зарегистрирован:  9 дней   |    .torrent скачан:  13 раз   |   
Раздают:  1  
   
загрузка...
 
Автор Сообщение

Galfimbul

avatar Galfimbul


Гоголь. Страшная месть



Год выпуска: 2018
Страна: Россия
Производство: Продюсерская компания «Среда»
Жанр: Детектив, приключения, триллер, экранизация
Режиссёр: Егор Баранов
В ролях: Александр Петров, Олег Меньшиков, Евгений Стычкин, Артем Сучков, Таисия Вилкова, Юлия Франц, Ян Цапник, Евгений Сытый, Сергей Бадюк, Артём Ткаченко
Перевод: Оригинал | [Лицензия]
Субтитры: Нет
Реклама: Отсутствует

Описание: Две сотни лет назад малороссийские хутора разоряла шайка нехристей-ляхов во главе с могущественным колдуном. С тех пор рыщет в окрестностях Диканьки неизвестный Чёрный Всадник, ловит молодых девушек и жестоко расправляется с ними, будто мстит за что. И следующей его жертвой может стать Лиза. Чтобы спасти возлюбленную, писарь Николай Гоголь должен разбить злые чары и победить древнее проклятье. Ни одному из смертных ещё не удавалось это, но к счастью, на помощь Гоголю приходит гениальный столичный сыщик Яков Гуро, и у него уже есть главный подозреваемый…


Качество: BDRip-AVC | BluRay Disc | GOGOL_A_TERRIBLE_VENGEANCE_RUS_BLUEBIRD
Продолжительность: 01:46:40

Формат: MKV
Видео кодек: MPEG-4 AVC
Аудио кодек: AC3
Видео: 720x304 (2.35:1), 24,000 fps, x264 ~1 509 kbps avg, 0.287 bit/pixel
Аудио #1: 48 kHz, AC3 Dolby Digital, 3/2 (L,C,R,l,r) + LFE ch, ~448.00 kbps avg | RUS (Лицензия)
Дата премьеры (мир):
Дата премьеры (РФ): 30 августа 2018, «Каропрокат»
Цифровой релиз: 10 октября 2018, «Газпром-медиа»
Общее
Уникальный идентификатор : 85763196965256207495342408795402050132 (0x40856413152298073601E50A6FA49A54)
Полное имя : F:OlLanDGroupGogol.Strashnaja.Mest.2018.BDRip(AVC).OllanDGoup.mkv
Формат : Matroska
Версия формата : Version 4 / Version 2
Размер файла : 1,46 Гбайт
Продолжительность : 1 ч. 46 м.
Общий поток : 1954 Кбит/сек
Название фильма : Гоголь.Страшная месть.2018 #TorpedoUK#
Дата кодирования : UTC 2019-03-14 08:31:18
Программа кодирования : mkvmerge v29.0.0 ('Like It Or Not') 64-bit
Библиотека кодирования : libebml v1.3.6 + libmatroska v1.4.9

Видео
Идентификатор : 1
Формат : AVC
Формат/Информация : Advanced Video Codec
Профиль формата : High@L4.1
Параметр CABAC формата : Да
Параметр ReFrames формата : 10 кадров
Идентификатор кодека : V_MPEG4/ISO/AVC
Продолжительность : 1 ч. 46 м.
Битрейт : 1509 Кбит/сек
Ширина : 720 пикселей
Высота : 304 пикселя
Соотношение сторон : 2,35:1
Режим частоты кадров : Постоянный
Частота кадров : 24,000 кадра/сек
Цветовое пространство : YUV
Субдискретизация насыщенности : 4:2:0
Битовая глубина : 8 бит
Тип развёртки : Прогрессивная
Бит/(Пиксели*Кадры) : 0.287
Размер потока : 1,12 Гбайт (77%)
Библиотека кодирования : x264 core 146 r2538 121396c
Настройки программы : cabac=1 / ref=10 / deblock=1:-2:-3 / analyse=0x3:0x113 / me=umh / subme=11 / psy=1 / psy_rd=0.97:0.05 / mixed_ref=1 / me_range=48 / chroma_me=1 / trellis=2 / 8x8dct=1 / cqm=0 / deadzone=21,11 / fast_pskip=1 / chroma_qp_offset=-3 / threads=6 / lookahead_threads=1 / sliced_threads=0 / nr=0 / decimate=1 / interlaced=0 / bluray_compat=0 / constrained_intra=0 / bframes=11 / b_pyramid=2 / b_adapt=2 / b_bias=0 / direct=3 / weightb=1 / open_gop=0 / weightp=2 / keyint=240 / keyint_min=23 / scenecut=40 / intra_refresh=0 / rc_lookahead=40 / rc=2pass / mbtree=0 / bitrate=1509 / ratetol=1.0 / qcomp=0.60 / qpmin=0 / qpmax=69 / qpstep=4 / cplxblur=20.0 / qblur=0.5 / vbv_maxrate=50000 / vbv_bufsize=62500 / nal_hrd=none / filler=0 / ip_ratio=1.40 / pb_ratio=1.30 / aq=1:1.00
Default : Да
Forced : Нет

Аудио
Идентификатор : 2
Формат : AC-3
Формат/Информация : Audio Coding 3
Расширение режима : CM (complete main)
Параметр Endianness формата : Big
Идентификатор кодека : A_AC3
Продолжительность : 1 ч. 46 м.
Вид битрейта : Постоянный
Битрейт : 448 Кбит/сек
Каналы : 6 каналов
Расположение каналов : Front: L C R, Side: L R, LFE
Частота : 48,0 КГц
Частота кадров : 31,250 кадров/сек (1536 spf)
Битовая глубина : 16 бит
Метод сжатия : С потерями
Размер потока : 342 Мбайт (23%)
Default : Да
Forced : Нет

Меню
00:00:00.000 : :Глава 01
00:02:05.917 : :Глава 02
00:12:12.250 : :Глава 03
00:25:21.167 : :Глава 04
00:40:19.917 : :Глава 05
00:52:32.625 : :Глава 06
01:07:14.042 : :Глава 07
01:17:52.792 : :Глава 08
01:31:43.625 : :Глава 09
Источник http://BlaTor.org

Трекер:  [ 14-Мар-2019 12:10 ]

  

Скачать .torrent

Размер .torrent файла 15 KB


Размер: 1.46 GB
Хэш (hash) релиза: 31bcffef4b7aec0a185ae420af4e050986ca87a5
Подписка на обновления:

Торренты, похожие на Гоголь. Страшная месть скачать торрент

Форум Название Автор Размер S L Добавлен
Российские фильмы 2016-2018 (Новинки русского кино) ·%· Гоголь. Страшная месть (2018) BDRemux 1080p | Rus Transfer | Лицензия Galfimbul 2778125616725.87 GB 0 0 1552817527

13:12

17-Мар-19

Российские фильмы 2016-2018 (Новинки русского кино) ·%· Гоголь. Страшная месть (2018) BDRip от ExKinoRay | Лицензия Galfimbul 15697314081.46 GB 0 0 1552593629

23:00

14-Мар-19

Российские фильмы 2016-2018 (Новинки русского кино) ·%· Гоголь. Страшная месть (2018) Blu-ray 1080p | Rus Transfer | Лицензия Galfimbul 2891978441526.93 GB 0 0 1552488059

17:40

13-Мар-19

Российские фильмы 2016-2018 (Новинки русского кино) ·%· Гоголь. Страшная месть (2018) HDRip-AVC от OlLanDGroup | Лицензия Galfimbul 780867092745 MB 0 0 1552368722

08:32

12-Мар-19

Российские фильмы 2016-2018 (Новинки русского кино) ·%· Гоголь. Страшная месть (2018) HDRip | Лицензия Galfimbul 785274880749 MB 0 0 1552286412

09:40

11-Мар-19

Российские фильмы 2016-2018 (Новинки русского кино) ·%· Гоголь. Страшная месть (2018) BDRip | Лицензия Galfimbul 15530459101.45 GB 0 0 1552223509

16:11

10-Мар-19

Российские фильмы 2016-2018 (Новинки русского кино) ·%· Гоголь. Страшная месть (2018) BDRip 720p | Лицензия Galfimbul 44723370814.17 GB 0 0 1552223499

16:11

10-Мар-19

Российские фильмы 2016-2018 (Новинки русского кино) ·%· Гоголь. Страшная месть (2018) BDRip 1080p | Лицензия Galfimbul 79251161977.38 GB 0 0 1552223477

16:11

10-Мар-19

Российские фильмы 2016-2018 (Новинки русского кино) ·%· Гоголь. Страшная месть (2018) DVDRip от Tapochek | Лицензия Galfimbul 15733678081.47 GB 0 0 1550679034

19:10

20-Фев-19

Российские фильмы 2016-2018 (Новинки русского кино) ·%· Гоголь. Страшная месть (2018) DVD9 | Лицензия Galfimbul 52480389124.89 GB 0 0 1549957817

10:50

12-Фев-19

Российские фильмы 2016-2018 (Новинки русского кино) ·%· Гоголь. Страшная месть (2018) WEB-DLRip от Scarabey | iTunes Galfimbul 15464878081.44 GB 0 0 1539198738

22:12

10-Окт-18

Российские фильмы 2016-2018 (Новинки русского кино) ·%· Гоголь. Страшная месть (2018) WEB-DLRip от ExKinoRay Galfimbul 782278656746 MB 0 0 1539181944

17:32

10-Окт-18

Российские фильмы 2016-2018 (Новинки русского кино) ·%· Гоголь. Страшная месть (2018) WEB-DLRip от Generalfilm | КПК | iTunes Galfimbul 425059989405 MB 0 0 1539159183

11:13

10-Окт-18

Российские фильмы 2016-2018 (Новинки русского кино) ·%· Гоголь. Страшная месть (2018) WEB-DLRip-AVC | iTunes Galfimbul 779460869743 MB 0 0 1539148851

08:20

10-Окт-18

Российские фильмы 2016-2018 (Новинки русского кино) ·%· Гоголь. Страшная месть (2018) WEB-DLRip-AVC от ExKinoRay | iTunes Galfimbul 17646944781.64 GB 0 0 1539141069

06:11

10-Окт-18

Российские фильмы 2016-2018 (Новинки русского кино) ·%· Гоголь. Страшная месть (2018) WEB-DLRip от GeneralFilm | iTunes Galfimbul 15627448321.46 GB 0 0 1539122464

01:01

10-Окт-18

Российские фильмы 2016-2018 (Новинки русского кино) ·%· Гоголь. Страшная месть (2018) WEB-DL 1080p | iTunes Galfimbul 39057538893.64 GB 0 0 1539114015

22:40

9-Окт-18

Еще никто не оставлял запись к записи скачать торрент Гоголь. Страшная месть . Будь первым!

!Обратная связь