Скачать через торрент Завод Фильм бесплатно в хорошем качестве torrent

Скачивайте на UnionPeer.org фильмы через торрент без регистрации. Новинки кино в хорошем качестве через торрент. На UnionPeer.org можно скачать через торрент фильмы 2014 и 2015 годов. Самые новые фильмы.

Скачать торрент Завод бесплатно через .torrent фильм мультфильм сериал

Статистика раздачи
Размер:  745 MB   |    Зарегистрирован:  9 дней   |    .torrent скачан:  15 раз   |   
Раздают:  1  
   
загрузка...
 
Автор Сообщение

Galfimbul

avatar Galfimbul


Информация о фильме
Завод



[b]Год выпуска:
2018
Жанр: Боевик, драма, триллер, криминал
Режиссер: Юрий Быков
В ролях: Денис Шведов, Владислав Абашин, Андрей Смоляков, Александр Бухаров, Дмитрий Куличков, Иван Янковский, Юрий Тарасов, Пётр Баранчеев, Александр Воробьёв, Алексей Комашко, Кирилл Полухин, Александр Логинов, Сергей Сосновский, Борис Невзоров, Олег Алмазов, Александр Баширов, Алексей Фаддеев, Илья Соколовский

О фильме:
Закрывают градообразующий завод. Владелец предприятия — олигарх Калугин — банкротит его, чтобы заключить выгодную сделку с иностранцами. Несколько тысяч рабочих остаются на улице без средств к существованию. Все смиренно принимают эту участь, и только пятеро отчаянных мужиков решают отстоять свое и взять хозяина в заложники, чтоб требовать с него деньги. Вожак работяг — Седой, воевавший и раненый в горячей точке, — вместе с товарищами вступает в смертельную схватку с опричником олигарха Туманом и его группой спецов за жизнь Калугина. Исход боя решит, кто прав — богатые или бедные.



Страна: Россия, Армения, Франция
Студия: Kinovista, Forever Films Media, Coda, Sharm Holding
Продолжительность: 01:50:37
Язык: Русский | iTunes

Файл
Формат: AVI
Качество: WEB-DLRip
Видео: 688x288 (2.39:1), 24 fps, XviD build 73 ~804 kbps avg, 0.17 bit/pixel
Звук: 48 kHz, MPEG Layer 3, 2 ch, ~128.00 kbps avg
Субтитры: Нет
General
Complete name : D:Мои рипыZavod.2018.WEB-DLRip.OlLanDGroup.avi
Format : AVI
Format/Info : Audio Video Interleave
File size : 745 MiB
Duration : 1 h 50 min
Overall bit rate : 942 kb/s
Writing application : VirtualDubMod 1.5.10.3 | www.virtualdub-fr.org || (build 2550/release)
Writing library : VirtualDubMod build 2550/release

Video
ID : 0
Format : MPEG-4 Visual
Format profile : Advanced Simple@L5
Format settings : BVOP1 / Custom Matrix
Format settings, BVOP : 1
Format settings, QPel : No
Format settings, GMC : No warppoints
Format settings, Matrix : Custom
Codec ID : XVID
Codec ID/Hint : XviD
Duration : 1 h 50 min
Bit rate : 805 kb/s
Width : 688 pixels
Height : 288 pixels
Display aspect ratio : 2.40:1
Frame rate : 24.000 FPS
Color space : YUV
Chroma subsampling : 4:2:0
Bit depth : 8 bits
Scan type : Progressive
Compression mode : Lossy
Bits/(Pixel*Frame) : 0.169
Stream size : 637 MiB (85%)
Writing library : XviD 73

Audio
ID : 1
Format : MPEG Audio
Format version : Version 1
Format profile : Layer 3
Codec ID : 55
Codec ID/Hint : MP3
Duration : 1 h 50 min
Bit rate mode : Constant
Bit rate : 128 kb/s
Channel(s) : 2 channels
Sampling rate : 48.0 kHz
Frame rate : 41.667 FPS (1152 SPF)
Compression mode : Lossy
Stream size : 101 MiB (14%)
Alignment : Aligned on interleaves
Interleave, duration : 42 ms (1.00 video frame)
Interleave, preload duration : 504 ms
Writing library : LAME3.99r
Encoding settings : -m s -V 4 -q 2 -lowpass 17 -b 128
Источник http://BlaTor.org

Трекер:  [ 14-Мар-2019 12:30 ]

  

Скачать .torrent

Размер .torrent файла 15 KB


Размер: 745 MB
Хэш (hash) релиза: d983943e07bec1504897091c25a704398bd9a43d
Подписка на обновления:

Торренты, похожие на Завод скачать торрент

Форум Название Автор Размер S L Добавлен
Российские фильмы 2016-2018 (Новинки русского кино) ·%· Завод (2018) WEB-DLRip-AVC от Files-x | iTunes Galfimbul 15638776021.46 GB 0 0 1552749042

18:10

16-Мар-19

Российские фильмы 2016-2018 (Новинки русского кино) ·%· Завод (2018) WEB-DLRip-AVC от OlLanDGroup | iTunes Galfimbul 18030331091.68 GB 0 0 1552740620

15:50

16-Мар-19

Российские фильмы 2016-2018 (Новинки русского кино) ·%· Завод (2018) WEB-DLRip от GeneralFilm | iTunes Galfimbul 782325760746 MB 0 0 1552689019

01:30

16-Мар-19

Российские фильмы 2016-2018 (Новинки русского кино) ·%· Завод (2018) WEB-DLRip от ExKinoRay | iTunes Galfimbul 15726205381.46 GB 0 0 1552591252

22:20

14-Мар-19

Российские фильмы 2016-2018 (Новинки русского кино) ·%· Завод (2018) WEB-DL 720p | iTunes Galfimbul 24492286572.28 GB 0 0 1552552221

11:30

14-Мар-19

Российские фильмы 2016-2018 (Новинки русского кино) ·%· Завод (2018) WEB-DLRip от MegaPeer | iTunes Galfimbul 15679119361.46 GB 0 0 1552547443

10:10

14-Мар-19

Российские фильмы 2016-2018 (Новинки русского кино) ·%· Завод (2018) WEB-DL 1080p | iTunes Galfimbul 45667590114.25 GB 0 0 1552543862

09:11

14-Мар-19

Российские фильмы 2016-2018 (Новинки русского кино) ·%· Завод (2018) WEB-DLRip | iTunes Galfimbul 22038241282.05 GB 0 0 1552543853

09:10

14-Мар-19

Российские фильмы 2016-2018 (Новинки русского кино) ·%· Завод (2018) WEB-DLRip от Scarabey Galfimbul 781422592745 MB 0 0 1551462656

20:50

1-Мар-19

Российские фильмы 2016-2018 (Новинки русского кино) ·%· Завод (2018) WEBRip от ExKinoRay Galfimbul 15706525681.46 GB 0 0 1551461445

20:30

1-Мар-19

Российские фильмы 2016-2018 (Новинки русского кино) ·%· Завод (2018) WEB-DLRip от Scarabey Galfimbul 15887421441.48 GB 0 0 1551461424

20:30

1-Мар-19

Российские фильмы 2016-2018 (Новинки русского кино) ·%· Завод (2018) WEBRip от GeneralFilm Galfimbul 782186496746 MB 0 0 1551392451

01:20

1-Мар-19

Российские фильмы 2016-2018 (Новинки русского кино) ·%· Завод (2018) WEBRip-AVC от Files-x Galfimbul 15623306861.46 GB 0 0 1551382859

22:40

28-Фев-19

Российские фильмы 2016-2018 (Новинки русского кино) ·%· Завод (2018) WEBRip-AVC Galfimbul 10719504521022 MB 0 0 1551374414

20:20

28-Фев-19

Российские фильмы 2016-2018 (Новинки русского кино) ·%· Завод (2018) WEBRip от Generalfilm | КПК Galfimbul 423527440404 MB 0 0 1551361229

16:40

28-Фев-19

Российские фильмы 2016-2018 (Новинки русского кино) ·%· Завод (2018) WEBRip 720p Galfimbul 36703523303.42 GB 0 0 1551345046

12:10

28-Фев-19

Российские фильмы 2016-2018 (Новинки русского кино) ·%· Завод (2018) WEB-DL 1080p Galfimbul 52891733264.93 GB 0 0 1551336675

09:51

28-Фев-19

Российские фильмы 2016-2018 (Новинки русского кино) ·%· Завод (2019) WEB-DLRip Galfimbul 14720798721.37 GB 0 0 1551336665

09:51

28-Фев-19

Документальные фильмы и телепередачи ·· 360 Авиационный ремонтный завод [2009, Авиация, DVB] Galfimbul 792520699756 MB 0 0 1498335285

23:14

24-Июн-17

Еще никто не оставлял запись к записи скачать торрент Завод . Будь первым!

!Обратная связь