Скачать через торрент Семь ужинов Фильм бесплатно в хорошем качестве torrent

Скачивайте на UnionPeer.org фильмы через торрент без регистрации. Новинки кино в хорошем качестве через торрент. На UnionPeer.org можно скачать через торрент фильмы 2014 и 2015 годов. Самые новые фильмы.

Скачать торрент Семь ужинов бесплатно через .torrent фильм мультфильм сериал

Статистика раздачи
Размер:  3.11 GB   |    Зарегистрирован:  2 месяца 12 дней   |    .torrent скачан:  291 раз   |   
Раздают:  2  
   
загрузка...
 
Автор Сообщение

Galfimbul

avatar Galfimbul


Семь ужинов



[b]Год выхода:
2019
Жанр: комедия
Режиссер: Кирилл Плетнев
В ролях: Роман Курцын, Полина Максимова, Елена Яковлева, Владимир Ильин, Петар Зекавица, Анастасия Уколова, Вера Гурьева, Александр Лыков

О фильме:
Роман Курцын, Полина Максимова, Елена Яковлева, Владимир Ильин, Петар Зекавица, Анастасия Уколова, Вера Гурьева, Александр Лыков



Страна: Россия
Продолжительность: 01:29:44

Файл
Формат: MKV
Видео: 1920x804 at 24.000 fps, MPEG-4 AVC, ~4579 kbps avg
Аудио: Russian: 48 kHz, AC3, 3/2 (L,C,R,l,r) + LFE ch, ~384.00 kbps avg
Cубтитры: нет

[li]
General
Unique ID : 241429929877522863968418572975593611331 (0xB5A1B6907D73E16397E191571455E043)
Complete name : Семь Ужинов.2019.mkv
Format : Matroska
Format version : Version 2
File size : 3.11 GiB
Duration : 1 h 29 min
Overall bit rate : 4 965 kb/s
Encoded date : UTC 2019-03-14 08:42:26
Writing application : mkvmerge v7.8.0 ('River Man') 32bit built on Mar 27 2015 16:18:02
Writing library : libebml v1.3.1 + libmatroska v1.4.2

Video
ID : 1
Format : AVC
Format/Info : Advanced Video Codec
Format profile : High@L4
Format settings : CABAC / 5 Ref Frames
Format settings, CABAC : Yes
Format settings, ReFrames : 5 frames
Codec ID : V_MPEG4/ISO/AVC
Duration : 1 h 29 min
Bit rate : 4 482 kb/s
Width : 1 920 pixels
Height : 804 pixels
Display aspect ratio : 2.40:1
Frame rate mode : Constant
Frame rate : 24.000 FPS
Color space : YUV
Chroma subsampling : 4:2:0
Bit depth : 8 bits
Scan type : Progressive
Bits/(Pixel*Frame) : 0.121
Stream size : 2.81 GiB (90%)
Title : Семь ужинов 2019
Language : Russian
Default : Yes
Forced : No
Color range : Limited
Color primaries : BT.709
Transfer characteristics : BT.709
Matrix coefficients : BT.709

Audio
ID : 2
Format : AC-3
Format/Info : Audio Coding 3
Codec ID : A_AC3
Duration : 1 h 29 min
Bit rate mode : Constant
Bit rate : 384 kb/s
Channel(s) : 6 channels
Channel positions : Front: L C R, Side: L R, LFE
Sampling rate : 48.0 kHz
Frame rate : 31.250 FPS (1536 SPF)
Bit depth : 16 bits
Compression mode : Lossy
Stream size : 247 MiB (8%)
Language : Russian
Service kind : Complete Main
Default : Yes
Forced : No
[/li]
Источник http://BlaTor.org

Трекер:  [ 14-Мар-2019 14:50 ]

  

Скачать .torrent

Размер .torrent файла 16 KB


Размер: 3.11 GB
Хэш (hash) релиза: 8db35481a65d5b4b3a366547ff1ed0282c2b7c15
Подписка на обновления:

Торренты, похожие на Семь ужинов скачать торрент

Форум Название Автор Размер S L Добавлен
Российские фильмы 2016-2018 (Новинки русского кино) ·%· Семь ужинов (2019) WEB-DLRip от Scarabey | iTunes Galfimbul 15386685441.43 GB 0 0 1552671078

20:31

15-Мар-19

Российские фильмы 2016-2018 (Новинки русского кино) ·%· Семь ужинов (2019) WEB-DLRip от Generalfilm | КПК | iTunes Galfimbul 357389307341 MB 0 0 1552649428

14:30

15-Мар-19

Российские фильмы 2016-2018 (Новинки русского кино) ·%· Семь ужинов (2019) WEB-DLRip-AVC | iTunes Galfimbul 11372264541.06 GB 0 0 1552644704

13:11

15-Мар-19

Российские фильмы 2016-2018 (Новинки русского кино) ·%· Семь ужинов (2019) WEB-DLRip-AVC от ExKinoRay | iTunes Galfimbul 15513073071.44 GB 0 0 1552617031

05:30

15-Мар-19

Российские фильмы 2016-2018 (Новинки русского кино) ·%· Семь ужинов (2019) WEB-DLRip от GeneralFilm | iTunes Galfimbul 781477888745 MB 0 0 1552581100

19:31

14-Мар-19

Российские фильмы 2016-2018 (Новинки русского кино) ·%· Семь ужинов (2019) WEB-DLRip от MegaPeer | iTunes Galfimbul 15683665921.46 GB 0 0 1552570266

16:31

14-Мар-19

Зарубежные сериалы ·· Ужин с Бреттом Гельманом и семьёй Бретта Гельмана / Dinner with Family with Brett Gelman and Brett Gelman's Family (Джейсон Вулинер / Jason Woliner) [2015, США, чёрная комедия, HDTV 720p] Original + Rus Sub (dhreilly) Galfimbul 583682019557 MB 0 0 1473831982

08:46

14-Сен-16

Еще никто не оставлял запись к записи скачать торрент Семь ужинов . Будь первым!

!Обратная связь