Скачать через торрент Террор в прямом эфире The Terror Live Фильм бесплатно в хорошем качестве torrent

Скачивайте на UnionPeer.org фильмы через торрент без регистрации. Новинки кино в хорошем качестве через торрент. На UnionPeer.org можно скачать через торрент фильмы 2014 и 2015 годов. Самые новые фильмы.

Скачать торрент Террор в прямом эфире The Terror Live бесплатно через .torrent фильм мультфильм сериал

Статистика раздачи
Размер:  7.44 GB   |    Зарегистрирован:  2 месяца 11 дней   |    .torrent скачан:  22 раза   |   
Раздают:  1  
   
загрузка...
 
Автор Сообщение

Galfimbul

avatar Galfimbul


Название: Террор в прямом эфире
Оригинальное название: The Terror Live
Жанр: триллер
Год выпуска: 2013
Режиссер: Ким Бён У / Byeong-woo
В ролях: Ха Чон У, И Гён Ён, Чон Хё Чин, Чхве Чин Хо, Ким Со Чин

О фильме: Радиоведущий программы новостей получает звонок от террориста, который угрожает взорвать мост над рекой Хан. Ведущий думает, что это розыгрыш, и беспечно говорит ему сделать это. Спустя несколько секунд происходит взрыв.



Страна: Южная Корея
Продолжительность: 01:38:01
Перевод: Любительский (двухголосый) [den904, deadsno]

Файл
Формат: MKV
Качество: BDRip 720p [CHD]
Видео: AVC (x264), 1280x694 (1,85:1) at 23,976 fps, 9600 Кbps, 0.451 bpp
Аудио 1: AC3; 640 Kbps; CBR; 6 ch; 48 khz | DVO - den904, DeadSno |
Аудио 2: AC3; 640 Kbps; CBR; 6 ch; 48 khz | Корейский |
Аудио 3: AC3; 192 Kbps; CBR; 2 ch; 48 khz | DVO - GREEN TEA | скачать отдельно тут ---> https://docs.google.com/file/d/0B4HTz0CaM4a2WVkzekIzbmZBeUk/edit

Субтитры: английские русские (ФСГ "АЛЬЯНС") (скачать отдельно)
<div class="hidewrap"><div class="hidehead" onclick="hideshow($(this))">MediaInfo</div><div class="hidebody"></div><textarea class="hidearea">

Код:

Общее
Уникальный идентификатор                 : 251650106457427472125833180992132530253 (0xBD520C2C76A97B49BDC70466137EC04D)
Полное имя                               : Террор в прямом эфире.2013.DVO.720p.BluRay.x264-EbP.mkv
Формат                                   : Matroska
Версия формата                           : Version 4 / Version 2
Размер файла                             : 7,44 Гбайт
Продолжительность                        : 1 ч. 38 м.
Общий поток                              : 10,9 Мбит/сек
Название фильма                          : The Terror Live [720p] [2013] DVO
Дата кодирования                         : UTC 2014-01-09 12:30:34
Программа кодирования                    : mkvmerge v6.6.0 ('The Edge Of The In Between') built on Dec  1 2013 17:55:00
Библиотека кодирования                   : libebml v1.3.0 + libmatroska v1.4.1

Видео
Идентификатор                            : 1
Формат                                   : AVC
Формат/Информация                        : Advanced Video Codec
Профиль формата                          : High@L4.1
Параметр CABAC формата                   : Да
Параметр ReFrames формата                : 9 кадров
Идентификатор кодека                     : V_MPEG4/ISO/AVC
Продолжительность                        : 1 ч. 38 м.
Битрейт                                  : 9600 Кбит/сек
Ширина                                   : 1280 пикселей
Высота                                   : 694 пикселя
Соотношение сторон                       : 1,85:1
Режим частоты кадров                     : Постоянный
Частота кадров                           : 23,976 кадра/сек
Цветовое пространство                    : YUV
Субдискретизация насыщенности            : 4:2:0
Битовая глубина                          : 8 бит
Тип развёртки                            : Прогрессивная
Бит/(Пиксели*Кадры)                      : 0.451
Размер потока                            : 6,42 Гбайт (86%)
Заголовок                                : profile.php?mode=viewprofile&u=22488948
Библиотека кодирования                   : x264 core 133 r2334 a3ac64b
Настройки программы                      : cabac=1 / ref=9 / deblock=1:-3:-3 / analyse=0x3:0x113 / me=umh / subme=9 / psy=1 / psy_rd=1.05:0.00 / mixed_ref=1 / me_range=16 / chroma_me=1 / trellis=2 / 8x8dct=1 / cqm=0 / deadzone=21,11 / fast_pskip=0 / chroma_qp_offset=-2 / threads=3 / lookahead_threads=1 / sliced_threads=0 / nr=0 / decimate=0 / interlaced=0 / bluray_compat=0 / constrained_intra=0 / bframes=10 / b_pyramid=2 / b_adapt=2 / b_bias=0 / direct=3 / weightb=1 / open_gop=0 / weightp=2 / keyint=250 / keyint_min=23 / scenecut=40 / intra_refresh=0 / rc=2pass / mbtree=0 / bitrate=9600 / ratetol=1.0 / qcomp=0.60 / qpmin=0 / qpmax=69 / qpstep=4 / cplxblur=20.0 / qblur=0.5 / ip_ratio=1.40 / pb_ratio=1.30 / aq=1:0.60
Язык                                     : Korean
Default                                  : Да
Forced                                   : Нет

Аудио #1
Идентификатор                            : 2
Формат                                   : AC-3
Формат/Информация                        : Audio Coding 3
Расширение режима                        : CM (complete main)
Параметр Endianness формата              : Big
Идентификатор кодека                     : A_AC3
Продолжительность                        : 1 ч. 38 м.
Вид битрейта                             : Постоянный
Битрейт                                  : 640 Кбит/сек
Каналы                                   : 6 каналов
Расположение каналов                     : Front: L C R, Side: L R, LFE
Частота                                  : 48,0 КГц
Битовая глубина                          : 16 бит
Метод сжатия                             : С потерями
Размер потока                            : 449 Мбайт (6%)
Заголовок                                : DVO [den904, DeadSno]
Язык                                     : Russian
Default                                  : Да
Forced                                   : Нет

Аудио #2
Идентификатор                            : 3
Формат                                   : AC-3
Формат/Информация                        : Audio Coding 3
Расширение режима                        : CM (complete main)
Параметр Endianness формата              : Big
Идентификатор кодека                     : A_AC3
Продолжительность                        : 1 ч. 38 м.
Вид битрейта                             : Постоянный
Битрейт                                  : 640 Кбит/сек
Каналы                                   : 6 каналов
Расположение каналов                     : Front: L C R, Side: L R, LFE
Частота                                  : 48,0 КГц
Битовая глубина                          : 16 бит
Метод сжатия                             : С потерями
Размер потока                            : 449 Мбайт (6%)
Язык                                     : Korean
Default                                  : Нет
Forced                                   : Нет

Текст
Идентификатор                            : 4
Формат                                   : UTF-8
Идентификатор кодека                     : S_TEXT/UTF8
Идентификатор кодека/Информация          : UTF-8 Plain Text
Язык                                     : English
Default                                  : Нет
Forced                                   : Нет

Меню
00:00:00.000                             : en:00:00:00.000
00:05:43.843                             : en:00:05:43.843
00:11:50.126                             : en:00:11:50.126
00:16:27.320                             : en:00:16:27.320
00:23:31.910                             : en:00:23:31.910
00:27:05.332                             : en:00:27:05.332
00:36:23.181                             : en:00:36:23.181
00:40:24.505                             : en:00:40:24.505
00:48:43.671                             : en:00:48:43.671
00:54:47.618                             : en:00:54:47.618
00:59:14.092                             : en:00:59:14.092
01:04:47.509                             : en:01:04:47.509
01:13:06.549                             : en:01:13:06.549
01:18:57.775                             : en:01:18:57.775
01:28:23.673                             : en:01:28:23.673
01:35:17.003                             : en:01:35:17.003
[box=#F5F5F5,#F5F5F5]

    x264 [info]: frame I:1061 Avg QP:13.75 size:121975
    x264 [info]: frame P:32491 Avg QP:15.62 size: 70039
    x264 [info]: frame B:107455 Avg QP:17.72 size: 43199
    x264 [info]: consecutive B-frames: 3.7% 4.5% 9.8% 15.5% 13.7% 34.0% 6.7% 2.0% 5.8% 1.1% 3.1%
[/box]

</textarea></div>
Источник http://BlaTor.org

Трекер:  [ 15-Мар-2019 00:10 ]

  

Скачать .torrent

Размер .torrent файла 19 KB


Размер: 7.44 GB
Хэш (hash) релиза: dc0554d8a1afd6ef390d8d75c4cc8092daeb9d80
Подписка на обновления:

Еще никто не оставлял запись к записи скачать торрент Террор в прямом эфире The Terror Live . Будь первым!

!Обратная связь