Скачать через торрент Власть Vice Фильм бесплатно в хорошем качестве torrent

Скачивайте на UnionPeer.org фильмы через торрент без регистрации. Новинки кино в хорошем качестве через торрент. На UnionPeer.org можно скачать через торрент фильмы 2014 и 2015 годов. Самые новые фильмы.

Скачать торрент Власть Vice бесплатно через .torrent фильм мультфильм сериал

Статистика раздачи
Размер:  9.23 GB   |    Зарегистрирован:  8 дней   |    .torrent скачан:  68 раз   |   
Раздают:  1  
   
загрузка...
 
Автор Сообщение

Galfimbul

avatar Galfimbul


Власть /Vice

Год выхода: 2018
Жанр: Драма, комедия, биография, история
Режиссер: Адам МакКей
В ролях: Кристиан Бэйл, Эми Адамс, Стив Карелл, Сэм Рокуэлл, Элисон Пилл, Эдди Марсан, Джастин Кирк, Лиза Гэй Хэмилтон, Джесси Племонс, Билл Кэмп, Дон МакМанус, Лили Рэйб, Шей Уигэм, Стивен Эдли Гуиргис, Камилль Джеймс Харман, Джиллиан Арменанте, Мэттью Джейкобс, ...

О фильме:
Когда миром управляют деньги и связи, один человек может получить безграничное влияние. Уникальный дар убеждения, незаурядный ум и доступ на самые высокие уровни власти позволили ему стать кукловодом среди сильных мира сего. Оставаясь теневым игроком, он навсегда изменил ход истории…



Страна: США
Студия: Annapurna Pictures, Gary Sanchez Productions, Plan B Entertainment
Продолжительность: 02:12:26
Перевод: Профессиональный многоголосый | HDRezka Studio

Файл
Кодек: AVC
Качество: WEBRip 1080p | Vice.2018.1080p.AMZN.WEBRip.DDP5.1.x264-NTG
Видео: MPEG-4 AVC, 9148 Kбит/с, 1920x816, 23.976 кадр/с
Аудио #1: Русский ( АС3, 2ch, 192 Кбит/с, 48.0 KHz) Профессиональный (многоголосый, закадровый) HDRezka Studio
Аудио #2: Английский ( E-АС3, 6ch, 640 Кбит/с, 48.0 KHz)
Субтитры: английские (Full, SDH)
Источник: Vice.2018.1080p.AMZN.WEBRip.DDP5.1.x264-NTG
General
Unique ID : 247736711548828152290959331510513422566 (0xBA605AE87650657E996CADA9FC45D0E6)
Complete name : Vice.2018.WEB-DL.1080p.mkv
Format : Matroska
Format version : Version 4 / Version 2
File size : 9.23 GiB
Duration : 2 h 12 min
Overall bit rate : 9 982 kb/s
Encoded date : UTC 2019-03-14 13:23:37
Writing application : mkvmerge v7.1.0 ('Good Love') 64bit built on Jul 27 2014 13:06:55
Writing library : libebml v1.3.0 + libmatroska v1.4.1

Video
ID : 1
Format : AVC
Format/Info : Advanced Video Codec
Format profile : High@L4
Format settings, CABAC : Yes
Format settings, RefFrames : 4 frames
Codec ID : V_MPEG4/ISO/AVC
Duration : 2 h 12 min
Bit rate mode : Constant
Bit rate : 9 148 kb/s
Nominal bit rate : 10 000 kb/s
Width : 1 920 pixels
Height : 816 pixels
Display aspect ratio : 2.35:1
Frame rate mode : Constant
Frame rate : 23.976 (24000/1001) FPS
Color space : YUV
Chroma subsampling : 4:2:0
Bit depth : 8 bits
Scan type : Progressive
Bits/(Pixel*Frame) : 0.244
Stream size : 8.46 GiB (92%)
Language : English
Default : Yes
Forced : No
Color range : Limited
Color primaries : BT.709
Transfer characteristics : BT.709
Matrix coefficients : BT.709

Audio #1
ID : 2
Format : AC-3
Format/Info : Audio Coding 3
Format settings, Endianness : Big
Codec ID : A_AC3
Duration : 2 h 11 min
Bit rate mode : Constant
Bit rate : 192 kb/s
Channel(s) : 2 channels
Channel positions : Front: L R
Sampling rate : 48.0 kHz
Frame rate : 31.250 FPS (1536 SPF)
Bit depth : 16 bits
Compression mode : Lossy
Stream size : 181 MiB (2%)
Title : MVO | HDRezka Studio
Language : Russian
Service kind : Complete Main
Default : Yes
Forced : No

Audio #2
ID : 3
Format : E-AC-3
Format/Info : Enhanced Audio Coding 3
Format settings, Endianness : Big
Codec ID : A_EAC3
Duration : 2 h 12 min
Bit rate mode : Constant
Bit rate : 640 kb/s
Channel(s) : 6 channels
Channel positions : Front: L C R, Side: L R, LFE
Sampling rate : 48.0 kHz
Frame rate : 187.500 FPS (256 SPF)
Compression mode : Lossy
Stream size : 606 MiB (6%)
Language : English
Service kind : Complete Main
Default : No
Forced : No

Text #1
ID : 4
Format : UTF-8
Codec ID : S_TEXT/UTF8
Codec ID/Info : UTF-8 Plain Text
Duration : 2 h 10 min
Bit rate : 77 b/s
Count of elements : 2327
Stream size : 74.1 KiB (0%)
Language : English
Default : No
Forced : No

Text #2
ID : 5
Format : UTF-8
Codec ID : S_TEXT/UTF8
Codec ID/Info : UTF-8 Plain Text
Duration : 2 h 11 min
Bit rate : 81 b/s
Count of elements : 2513
Stream size : 78.6 KiB (0%)
Title : SDH
Language : English
Default : No
Forced : No

Menu
00:00:00.000 : en:Chapter 01
00:03:05.602 : en:Chapter 02
00:07:50.803 : en:Chapter 03
00:13:33.979 : en:Chapter 04
00:19:29.918 : en:Chapter 05
00:26:39.347 : en:Chapter 06
00:33:10.445 : en:Chapter 07
00:37:50.850 : en:Chapter 08
00:42:01.725 : en:Chapter 09
00:51:35.465 : en:Chapter 10
00:56:00.896 : en:Chapter 11
01:00:24.200 : en:Chapter 12
01:06:50.544 : en:Chapter 13
01:10:11.243 : en:Chapter 14
01:13:14.426 : en:Chapter 15
01:17:04.071 : en:Chapter 16
01:23:49.141 : en:Chapter 17
01:26:43.522 : en:Chapter 18
01:34:42.291 : en:Chapter 19
01:39:09.432 : en:Chapter 20
01:44:44.974 : en:Chapter 21
01:49:41.145 : en:Chapter 22
01:59:18.847 : en:Chapter 23
02:02:20.194 : en:Chapter 24
Источник http://BlaTor.org

Трекер:  [ 15-Мар-2019 00:30 ]

  

Скачать .torrent

Размер .torrent файла 23 KB


Размер: 9.23 GB
Хэш (hash) релиза: b6a021581a1b433beb682452c38d8eefa37c381d
Подписка на обновления:

Еще никто не оставлял запись к записи скачать торрент Власть Vice . Будь первым!

!Обратная связь