Скачать через торрент Т-34 Фильм бесплатно в хорошем качестве torrent

Скачивайте на UnionPeer.org фильмы через торрент без регистрации. Новинки кино в хорошем качестве через торрент. На UnionPeer.org можно скачать через торрент фильмы 2014 и 2015 годов. Самые новые фильмы.

Скачать торрент Т-34 бесплатно через .torrent фильм мультфильм сериал

Статистика раздачи
Размер:  4.78 GB   |    Зарегистрирован:  7 месяцев   |    .torrent скачан:  136 раз   |   
Раздают:  1  
   
загрузка...
 
Автор Сообщение

Galfimbul

avatar Galfimbul


Название: Т-34
Год выпуска: 2018
Жанр: Драма, военный
Режиссер: Алексей Сидоров
В ролях: Александр Петров (II), Виктор Добронравов, Ирина Старшенбаум, Винценц Кифер, Петр Скворцов, Семён Трескунов, Артём Быстров, Антон Богданов, Василий Уриевский, Василий Буткевич

О фильме: Во времена величайших испытаний человечества, когда от каждого действия зависят жизни любимых, два заклятых врага начнут свое противостояние. Оказавшись в плену, вчерашний курсант Ивушкин планирует дерзкий побег. Он собирает свой экипаж и на легендарной «тридцатьчетверке» бросает вызов немецким танковым асам во главе с Ягером. Ради своей любви и Родины он готов идти до конца.


Выпущено: Россия, Марс Медиа, Амедиа Продакшн
Продолжительность: 02:19:06
Язык: Русский | iTunes

Файл
Качество: WEB-DL 1080p
Контейнер: MKV
Видео: MPEG-4 AVC, ~ 4442 Кбит/с, 1920x804
Аудио: AC3, 6 ch, 384 Кбит/с
Субтитры: Английские
General
Unique ID : 183772514972448526718488179128185678725 (0x8A414C8841286C10B5E24ACAA97C6B85)
Complete name : T34.WEB-DL.1080p.ELEKTRI4KA.UNIONGANG.mkv
Format : Matroska
Format version : Version 2
File size : 4.78 GiB
Duration : 2 h 19 min
Overall bit rate : 4 924 kb/s
Movie name : T-34.WEB-DL.1080p
Encoded date : UTC 2019-03-15 19:02:41
Writing application : mkvmerge v7.8.0 ('River Man') 32bit built on Apr 3 2015 12:11:22
Writing library : libebml v1.3.1 + libmatroska v1.4.2

Video
ID : 2
Format : AVC
Format/Info : Advanced Video Codec
Format profile : High@L4
Format settings, CABAC : Yes
Format settings, RefFrames : 5 frames
Codec ID : V_MPEG4/ISO/AVC
Duration : 2 h 19 min
Bit rate : 4 442 kb/s
Width : 1 920 pixels
Height : 804 pixels
Display aspect ratio : 2.40:1
Frame rate mode : Constant
Frame rate : 24.000 FPS
Color space : YUV
Chroma subsampling : 4:2:0
Bit depth : 8 bits
Scan type : Progressive
Bits/(Pixel*Frame) : 0.120
Stream size : 4.32 GiB (90%)
Language : English
Default : Yes
Forced : No
Color range : Limited
Color primaries : BT.709
Transfer characteristics : BT.709
Matrix coefficients : BT.709

Audio
ID : 1
Format : AC-3
Format/Info : Audio Coding 3
Format settings, Endianness : Big
Codec ID : A_AC3
Duration : 2 h 19 min
Bit rate mode : Constant
Bit rate : 384 kb/s
Channel(s) : 6 channels
Channel positions : Front: L C R, Side: L R, LFE
Sampling rate : 48.0 kHz
Frame rate : 31.250 FPS (1536 SPF)
Bit depth : 16 bits
Compression mode : Lossy
Stream size : 382 MiB (8%)
Title : iTunes RUS AC3, 384 Kb/s (6 ch)
Language : Russian
Service kind : Complete Main
Default : Yes
Forced : No

Text
ID : 3
Format : UTF-8
Codec ID : S_TEXT/UTF8
Codec ID/Info : UTF-8 Plain Text
Title : iTunes
Language : English
Default : Yes
Forced : No

Menu
00:00:00.000 : en:Глава 1
00:05:52.916 : en:Глава 2
00:12:22.832 : en:Глава 3
00:19:03.873 : en:Глава 4
00:25:40.873 : en:Глава 5
00:34:49.039 : en:Глава 6
00:41:16.455 : en:Глава 7
00:48:25.371 : en:Глава 8
00:56:20.412 : en:Глава 9
01:03:14.287 : en:Глава 10
01:12:51.702 : en:Глава 11
01:19:06.743 : en:Глава 12
01:25:44.618 : en:Глава 13
01:32:00.409 : en:Глава 14
01:37:42.909 : en:Глава 15
01:44:55.075 : en:Глава 16
01:50:39.532 : en:Глава 17
01:57:06.032 : en:Глава 18
02:03:23.864 : en:Глава 19
Источник http://BlaTor.org

Трекер:  [ 16-Мар-2019 03:30 ]

  

Скачать .torrent

Размер .torrent файла 24 KB


Размер: 4.78 GB
Хэш (hash) релиза: c2c3c5aaeefc9635399a919c55c60e73ecb05c54
Подписка на обновления:

Торренты, похожие на Т-34 скачать торрент

Форум Название Автор Размер S L Добавлен
Документальные фильмы и телепередачи ·· Т-34: Победа России / T-34: Russian Victory [2001, Документальный фильм, TVRip] Galfimbul 369548378352 MB 0 0 1498328037

21:13

24-Июн-17

Российские фильмы 2016-2018 (Новинки русского кино) ·%· Т-34 (2018) BDRip-AVC от HELLYWOOD | Лицензия Galfimbul 15672736141.46 GB 2 0 1554397870

20:11

4-Апр-19

Российские фильмы 2016-2018 (Новинки русского кино) ·%· Т-34 (2018) BDRip 720p от HELLYWOOD | Лицензия Galfimbul 61845664385.76 GB 0 0 1554347428

06:10

4-Апр-19

Российские фильмы 2016-2018 (Новинки русского кино) ·%· Т-34 (2018) HDRip-AVC | Лицензия Galfimbul 780575608744 MB 0 0 1554315140

21:12

3-Апр-19

Российские фильмы 2016-2018 (Новинки русского кино) ·%· Т-34 (2018) DVD5 | Лицензия Galfimbul 45192785924.21 GB 0 0 1554240629

00:30

3-Апр-19

Российские фильмы 2016-2018 (Новинки русского кино) ·%· Т-34 (2018) BDRip-HEVC 1080p от HANNIBAL | Лицензия Galfimbul 88834322498.27 GB 0 0 1554227439

20:50

2-Апр-19

Зарубежные фильмы 2016-2018 (Новинки зарубежного кино) ·%· Т-34 (2018) BDRip 720p от k.e.n & MegaPeer | Лицензия Galfimbul 46933009754.37 GB 0 0 1554183611

08:40

2-Апр-19

Российские фильмы 2016-2018 (Новинки русского кино) ·%· Т-34 (2018) HDRip от Portablius | Лицензия Galfimbul 836939776798 MB 0 0 1553940028

13:00

30-Мар-19

Российские фильмы 2016-2018 (Новинки русского кино) ·%· Т-34 (2018) BDRip | Лицензия Galfimbul 23302928782.17 GB 0 0 1553836386

08:13

29-Мар-19

Российские фильмы 2016-2018 (Новинки русского кино) ·%· Т-34 (2018) BDRip 720p | Лицензия Galfimbul 78141022607.28 GB 0 0 1553836372

08:12

29-Мар-19

Российские фильмы 2016-2018 (Новинки русского кино) ·%· Т-34 (2018) WEB-DLRip от Scarabey | iTunes Galfimbul 15546675201.45 GB 0 0 1553016613

20:30

19-Мар-19

Российские фильмы 2016-2018 (Новинки русского кино) ·%· Т-34 (2018) WEB-DLRip от Scarabey | iTunes Galfimbul 836820992798 MB 0 0 1552933221

21:20

18-Мар-19

Российские фильмы 2016-2018 (Новинки русского кино) ·%· Т-34 (2018) WEB-DLRip от Scarabey | iTunes Galfimbul 23354839042.18 GB 0 0 1552929632

20:20

18-Мар-19

Российские фильмы 2016-2018 (Новинки русского кино) ·%· Т-34 (2018) WEB-DLRip-AVC от OlLanDGroup | iTunes Galfimbul 22678821212.11 GB 0 0 1552739453

15:30

16-Мар-19

Российские фильмы 2016-2018 (Новинки русского кино) ·%· Т-34 (2018) WEB-DLRip от MegaPeer | iTunes Galfimbul 15682129921.46 GB 0 0 1552733465

13:51

16-Мар-19

Российские фильмы 2016-2018 (Новинки русского кино) ·%· Т-34 (2018) WEB-DLRip от MegaPeer | iTunes Galfimbul 833902592795 MB 0 0 1552733443

13:50

16-Мар-19

Российские фильмы 2016-2018 (Новинки русского кино) ·%· Т-34 (2018) WEB-DLRip от MegaPeer | iTunes Galfimbul 23438274562.18 GB 0 0 1552724424

11:20

16-Мар-19

Российские фильмы 2016-2018 (Новинки русского кино) ·%· Т-34 (2018) WEBRip 720p Galfimbul 35161833653.27 GB 2 0 1549255811

07:50

4-Фев-19

Российские фильмы 2016-2018 (Новинки русского кино) ·%· Т-34 (2018) WEBRip-AVC Galfimbul 22869815162.13 GB 0 0 1549211411

19:30

3-Фев-19

Еще никто не оставлял запись к записи скачать торрент Т-34 . Будь первым!

!Обратная связь