Скачать через торрент BEEF: Русский хип-хоп Фильм бесплатно в хорошем качестве torrent

Скачивайте на UnionPeer.org фильмы через торрент без регистрации. Новинки кино в хорошем качестве через торрент. На UnionPeer.org можно скачать через торрент фильмы 2014 и 2015 годов. Самые новые фильмы.

Скачать торрент BEEF: Русский хип-хоп бесплатно через .torrent фильм мультфильм сериал

Статистика раздачи
Размер:  1.46 GB   |    Зарегистрирован:  1 месяц 5 дней   |    .torrent скачан:  138 раз   |   
Раздают:  1  
   
загрузка...
 
Автор Сообщение

Galfimbul

avatar Galfimbul


BEEF: Русский хип-хоп



[b]Год выхода:
2019
Жанр: документальный, музыка, биография
Режиссер: Рома Жиган
В ролях: Баста, Александр Тимарцев, Адиль Жалелов, Мирон Фёдоров, Джа Калиб, ST, Вахтанг Каландадзе, Кирилл Толмацкий, L’One, Смоки Мо

О фильме:
Весь путь русского хип-хопа от андеграунда до огромных стадионов, показанный глазами самых ярких и знаковых представителей культуры. Фильм заглядывает за кулисы русского рэпа, обнажая все конфликты и столкновения, показывает истинный облик всего жанра и отвечает на вопрос — как ему удалось захватить современное поколение и стать музыкой номер один.

Страна: Россия
Продолжительность: 01:30:27
Перевод: Не требуется [iTunes]

Файл
Кодек: XviD
Качество: WEB-DLRip
Видео: XviD, 1923 Кбит/сек, 720x304 (2,35:1), 25,000 кадров/сек
Звук: AC3, 384 Кбит/сек, 6 каналов, 48,0 КГц

Семпл
Общее
Полное имя : C:DownloadsBEEF.Russkiy.Hip-Hop.2019.WEB-DLRip.avi
Формат : AVI
Формат/Информация : Audio Video Interleave
Размер файла : 1,46 Гбайт
Продолжительность : 1 ч. 30 м.
Общий поток : 2317 Кбит/сек
Программа кодирования : VirtualDubMod 1.5.10.3 | www.virtualdub-fr.org || (build 2550/release)
Библиотека кодирования : VirtualDubMod build 2550/release

Видео
Идентификатор : 0
Формат : MPEG-4 Visual
Профиль формата : Advanced Simple@L5
Параметр BVOP формата : 1
Параметр QPel формата : Нет
Параметр GMC формата : Без точки перехода
Параметр матрицы формата : Default (MPEG)
Идентификатор кодека : XVID
Идентификатор кодека/Подсказка : XviD
Продолжительность : 1 ч. 30 м.
Битрейт : 1923 Кбит/сек
Ширина : 720 пикселей
Высота : 304 пикселя
Соотношение сторон : 2,35:1
Частота кадров : 25,000 кадров/сек
Цветовое пространство : YUV
Субдискретизация насыщенности : 4:2:0
Битовая глубина : 8 бит
Тип развёртки : Прогрессивная
Метод сжатия : С потерями
Бит/(Пиксели*Кадры) : 0.351
Размер потока : 1,21 Гбайт (83%)
Библиотека кодирования : XviD 73

Аудио
Идентификатор : 1
Формат : AC-3
Формат/Информация : Audio Coding 3
Расширение режима : CM (complete main)
Параметр Endianness формата : Big
Идентификатор кодека : 2000
Продолжительность : 1 ч. 30 м.
Вид битрейта : Постоянный
Битрейт : 384 Кбит/сек
Каналы : 6 каналов
Расположение каналов : Front: L C R, Side: L R, LFE
Частота : 48,0 КГц
Битовая глубина : 16 бит
Метод сжатия : С потерями
Размер потока : 248 Мбайт (17%)
Выравнивание : Разделение по промежуткам
Продолжительность промежутка : 40 мс. (1,00 видеокадр)
Время предзагрузки промежутка : 500 мс.
Источник http://BlaTor.org

Трекер:  [ 18-Мар-2019 15:50 ]

  

Скачать .torrent

Размер .torrent файла 15 KB


Размер: 1.46 GB
Хэш (hash) релиза: 22a16ebfb20f3db3c98b960d235db99ebc19fcd6
Подписка на обновления:

Еще никто не оставлял запись к записи скачать торрент BEEF: Русский хип-хоп . Будь первым!

!Обратная связь